***Уважаемые пользователи и гости !!! Сайт переехал на новый домен Torrents-club.info. Просьба изменить ваши закладки! ***
 
[ Сегодня идет свободное скачивание без начисления Download ]


Статистика раздачи
Нет
 
   
 
 
 
 
Форсаж 7 / Furious 7 (2015) UHD BDRemux 2160p / Расширенная версия | Лицензия- Информация о фильме
Название: Форсаж 7
Оригинальное название: Furious 7
Год выхода: 2015
Жанр: боевик, триллер, криминал
Режиссер: Джеймс Ван / James Wan
В ролях: Вин Дизель, Пол Уокер, Джейсон Стэйтем, Мишель Родригес, Дуэйн Джонсон, Тайриз Гибсон, Лудакрис, Натали Эммануэль, Джордана Брюстер, Курт Рассел
О фильме:
Они покорили Токио и Рио, Лос-Анджелес и Лондон. Но мир больше не играет по их правилам. Зной арабских пустынь, неприлично высокие небоскребы, миллионы долларов на колесах и очень, очень знаменитый злодей. Скорость не знает границ.

Страна: США
Студия: Universal Pictures
Продолжительность: 02:19:54
Перевод: Дублированный перевод (BD CEE) Оригинал (Английский)
Файл
Кодек: HEVC/H.265
Качество: UHD BDRemux
Видео: HDR Video BT.2020 10 bit, 3840x2160, 42.0 Mb/s, 23.976 fps
Звук:
48 kHz, AC3, 5.1, 448 Kbps | Дублированный | RUS
48 kHz, AC3, 5.1, 448 Kbps | Оригинал | ENG
48 kHz, DTS-HD HRA, 7.1ch, 3 456 kb/s (1 509 kb/s) | Оригинал | ENG
Субтитры: Русские SRT (forced, full), английские, французские, испанские PGS.
Семпл

Скриншоты

MediaInfo

Format : Matroska
Format version : Version 4 / Version 2
File size : 45.3 GiB
Duration : 2 h 19 min
Overall bit rate : 46.4 Mb/s
Encoded date : UTC 2017-10-19 02:36:17
Writing application : mkvmerge v17.0.0 ('Be Ur Friend') 64-bit
Writing library : libebml v1.3.5 + libmatroska v1.4.8
Video
ID : 1
Format : HEVC
Format/Info : High Efficiency Video Coding
Format profile : Main 10@L5.1@High
Codec ID : V_MPEGH/ISO/HEVC
Duration : 2 h 19 min
Bit rate : 42.0 Mb/s
Width : 3 840 pixels
Height : 2 160 pixels
Display aspect ratio : 16:9
Frame rate mode : Constant
Frame rate : 23.976 (24000/1001) FPS
Color space : YUV
Chroma subsampling : 4:2:0 (Type 2)
Bit depth : 10 bits
Bits/(Pixel*Frame) : 0.211
Stream size : 41.0 GiB (90%)
Title : MPEG-H HEVC Video / 41954 kbps / 2160p / 23.976 fps / 16:9 / Main 10 Profile 5.1 High / 4:2:0 / 10 bits / HDR / BT.2020
Writing library : ATEME Titan File 3.7.8 (4.7.8.0)
Default : Yes
Forced : No
Color range : Limited
Color primaries : BT.2020
Transfer characteristics : SMPTE ST 2084
Matrix coefficients : BT.2020 non-constant
Mastering display color pri : R: x=0.680000 y=0.320000, G: x=0.265000 y=0.690000, B: x=0.150000 y=0.060000, White point: x=0.312700 y=0.329000
Mastering display luminance : min: 0.0050 cd/m2, max: 1000.0000 cd/m2
Maximum Content Light Level : 703 cd/m2
Maximum Frame-Average Light : 304 cd/m2
Audio #1
ID : 2
Format : AC-3
Format/Info : Audio Coding 3
Format settings, Endianness : Big
Codec ID : A_AC3
Duration : 2 h 19 min
Bit rate mode : Constant
Bit rate : 448 kb/s
Channel(s) : 6 channels
Channel positions : Front: L C R, Side: L R, LFE
Sampling rate : 48.0 kHz
Frame rate : 31.250 FPS (1536 SPF)
Bit depth : 16 bits
Compression mode : Lossy
Stream size : 448 MiB (1%)
Title : Rus AC3 448
Language : Russian
Service kind : Complete Main
Default : Yes
Forced : No
Audio #2
ID : 3
Format : AC-3
Format/Info : Audio Coding 3
Format settings, Endianness : Big
Codec ID : A_AC3
Duration : 2 h 19 min
Bit rate mode : Constant
Bit rate : 448 kb/s
Channel(s) : 6 channels
Channel positions : Front: L C R, Side: L R, LFE
Sampling rate : 48.0 kHz
Frame rate : 31.250 FPS (1536 SPF)
Bit depth : 16 bits
Compression mode : Lossy
Stream size : 448 MiB (1%)
Title : Eng AC3 448
Language : English
Service kind : Complete Main
Default : No
Forced : No
Audio #3
ID : 4
Format : DTS
Format/Info : Digital Theater Systems
Format profile : HRA / Core
Mode : 16
Format settings, Endianness : Big
Codec ID : A_DTS
Duration : 2 h 19 min
Bit rate mode : Constant
Bit rate : 3 456 kb/s / 1 509 kb/s
Channel(s) : 8 channels / 6 channels
Channel positions : Front: L C R, Side: L R, Back: L R, LFE / Front: L C R, Side: L R, LFE
Sampling rate : 48.0 kHz
Frame rate : 93.750 FPS (512 SPF)
Bit depth : 24 bits
Compression mode : Lossy
Stream size : 3.38 GiB (7%)
Title : DTS-HD Audio / 7.1 / 48 kHz / 3456 kbps / 24-bit
Language : English
Default : No
Forced : No
Text #1
ID : 5
Format : UTF-8
Codec ID : S_TEXT/UTF8
Codec ID/Info : UTF-8 Plain Text
Duration : 2 h 14 min
Bit rate : 2 b/s
Count of elements : 43
Stream size : 2.35 KiB (0%)
Title : Rus Forced
Language : Russian
Default : Yes
Forced : Yes
Text #2
ID : 6
Format : UTF-8
Codec ID : S_TEXT/UTF8
Codec ID/Info : UTF-8 Plain Text
Duration : 2 h 19 min
Bit rate : 68 b/s
Count of elements : 1416
Stream size : 69.5 KiB (0%)
Title : Rus
Language : Russian
Default : No
Forced : No
Text #3
ID : 7
Format : UTF-8
Codec ID : S_TEXT/UTF8
Codec ID/Info : UTF-8 Plain Text
Duration : 2 h 10 min
Bit rate : 49 b/s
Count of elements : 1669
Stream size : 47.4 KiB (0%)
Title : Eng (SRT)
Language : English
Default : No
Forced : No
Text #4
ID : 8
Format : PGS
Codec ID : S_HDMV/PGS
Codec ID/Info : Picture based subtitle format used on BDs/HD-DVDs
Duration : 2 h 10 min
Bit rate : 33.0 kb/s
Count of elements : 3340
Stream size : 30.9 MiB (0%)
Title : SDH
Language : English
Default : No
Forced : No
Text #5
ID : 9
Format : PGS
Codec ID : S_HDMV/PGS
Codec ID/Info : Picture based subtitle format used on BDs/HD-DVDs
Duration : 2 h 19 min
Bit rate : 25.6 kb/s
Count of elements : 2822
Stream size : 25.5 MiB (0%)
Language : French
Default : No
Forced : No
Text #6
ID : 10
Format : PGS
Codec ID : S_HDMV/PGS
Codec ID/Info : Picture based subtitle format used on BDs/HD-DVDs
Duration : 2 h 10 min
Bit rate : 26.5 kb/s
Count of elements : 2844
Stream size : 24.8 MiB (0%)
Language : Spanish
Default : No
Forced : No
Menu
00:00:00.000 : en:Chapter 1
00:04:39.946 : en:Chapter 2
00:11:29.480 : en:Chapter 3
00:16:39.290 : en:Chapter 4
00:25:54.052 : en:Chapter 5
00:33:43.897 : en:Chapter 6
00:41:44.585 : en:Chapter 7
00:46:41.006 : en:Chapter 8
00:52:10.711 : en:Chapter 9
01:02:31.414 : en:Chapter 10
01:06:16.681 : en:Chapter 11
01:14:16.869 : en:Chapter 12
01:22:34.032 : en:Chapter 13
01:33:21.137 : en:Chapter 14
01:38:27.485 : en:Chapter 15
01:45:40.084 : en:Chapter 16
01:53:54.452 : en:Chapter 17
01:58:31.062 : en:Chapter 18
02:06:19.864 : en:Chapter 19
02:11:31.175 : en:Chapter 20

[Цитировать]



Показать сообщения:    

Текущее время: 05-Июн 04:49

Часовой пояс: UTC + 6


Вы не можете начинать темы
Вы не можете отвечать на сообщения
Вы не можете редактировать свои сообщения
Вы не можете удалять свои сообщения
Вы не можете голосовать в опросах
Вы не можете прикреплять файлы к сообщениям
Вы не можете скачивать файлы

!ВНИМАНИЕ!
Сайт не предоставляет электронные версии произведений, а занимается лишь коллекционированием и каталогизацией ссылок, присылаемых и публикуемых на форуме нашими читателями. Если вы являетесь правообладателем какого-либо представленного материала и не желаете, чтобы ссылка на него находилась в нашем каталоге, свяжитесь с нами, и мы незамедлительно удалим ее. Файлы для обмена на трекере предоставлены пользователями сайта, и администрация не несет ответственности за их содержание. Просьба не заливать файлы, защищенные авторскими правами, а также файлы нелегального содержания!