***Уважаемые пользователи и гости !!! Сайт переехал на новый домен Torrents-club.info. Просьба изменить ваши закладки! ***
 
[ Сегодня идет свободное скачивание без начисления Download ]


Статистика раздачи
Нет
 
   
 
 
 
 
Цвет спелой вишни [01-02 из 02] (2017) WEB-DLRip 1080p Информация о фильме
Название: Цвет спелой вишни
Год выхода: 2017
Жанр: Мелодрама
Режиссер: Пётр Степин
В ролях: Евгения Нохрина, Дмитрий Пчела, Пётр Баранчеев, Елизавета Шукова, Андрей Сенькин, Оксана Лесная, Олеся Пуховая, Олег Гарбуз, Ефим Цуба
О фильме:
Еще вчера у Кати не было забот. Да и откуда они возьмутся, если твоя мама – высокопоставленный чиновник? А еще они с Иваном любят друг друга и скоро поженятся… Все меняется в одночасье, когда мать арестовывают по подозрению в коррупции и отбирают квартиру. Сестра Кати - Лиза рожает сына Владика и перекладывает все заботы о нем на плечи Кати. Но Иван не рад чужому ребенку, им приходится расстаться. Катя остается одна без денег и с ребенком на руках. Но вскоре жизнь снова дает надежду на счастье. Катя знакомится с бизнесменом Михаилом (Дмитрий Пчела). Он искренне полюбил Катю и малыша, и Катя готовится переехать к нему в Лондон. Но накануне отъезда к девушке возвращается Иван и предлагает начать все сначала. Катя понимает, что чувства к Ване не прошли. Она решает не лететь в Лондон. Но вскоре Катя начинает замечать, что Иван слишком строг к ее сыну. А вскоре на пороге Кати заявляется бабушка Владика и требует отдать внука…

Страна: Россия
Студия: Кинокомпания "Паламеда Продакшн", Продюсерский центр "Фабула"
Продолжительность: 2 х ~ 01:31:00
Перевод: Не требуется
Файл
Кодек: h.264
Качество: WEB-DLRip 1080p
Видео: MPEG-4 AVC, ~ 5120 Кбит/с, 1920x1080, 25,000 кадр/с
Звук: Русский (AC3, 2 ch, 256 Кбит/с)
Субтитры: Нет
Семпл

MI

General
Unique ID : 207856563459891392797338502408183840984 (0x9C5FB7CCE9E03B539D8BEC40ADBD80D8)
Complete name : D:uTorrentCvet.speloy.vishni.2017.WEB-DLRip.1080p.MediaClubCvet.speloy.vishni.(01.iz.02).2017.WEB-DLRip.1080p.MediaClub.mkv
Format : Matroska
Format version : Version 4 / Version 2
File size : 3.41 GiB
Duration : 1 h 30 min
Overall bit rate : 5 371 kb/s
Encoded date : UTC 2017-10-21 08:50:48
Writing application : mkvmerge v17.0.0 ('Be Ur Friend') 64-bit
Writing library : libebml v1.3.5 + libmatroska v1.4.8
Video
ID : 1
Format : AVC
Format/Info : Advanced Video Codec
Format profile : High@L4
Format settings, CABAC : Yes
Format settings, ReFrames : 4 frames
Format settings, GOP : M=7, N=50
Codec ID : V_MPEG4/ISO/AVC
Duration : 1 h 30 min
Bit rate : 5 120 kb/s
Width : 1 920 pixels
Height : 1 080 pixels
Display aspect ratio : 16:9
Frame rate mode : Constant
Frame rate : 25.000 FPS
Color space : YUV
Chroma subsampling : 4:2:0
Bit depth : 8 bits
Scan type : Progressive
Bits/(Pixel*Frame) : 0.099
Stream size : 3.25 GiB (95%)
Title : WEB-DLRip by Silverok
Writing library : x264 core 142
Encoding settings : cabac=1 / ref=3 / deblock=1:0:0 / analyse=0x3:0x113 / me=hex / subme=7 / psy=1 / psy_rd=1.00:0.00 / mixed_ref=1 / me_range=16 / chroma_me=1 / trellis=1 / 8x8dct=1 / cqm=0 / deadzone=21,11 / fast_pskip=1 / chroma_qp_offset=-2 / threads=36 / lookahead_threads=6 / sliced_threads=0 / nr=0 / decimate=1 / interlaced=0 / bluray_compat=0 / constrained_intra=0 / bframes=6 / b_pyramid=2 / b_adapt=1 / b_bias=0 / direct=1 / weightb=1 / open_gop=0 / weightp=2 / keyint=50 / keyint_min=26 / scenecut=0 / intra_refresh=0 / rc_lookahead=40 / rc=2pass / mbtree=1 / bitrate=5120 / ratetol=1.0 / qcomp=0.60 / qpmin=0 / qpmax=69 / qpstep=4 / cplxblur=20.0 / qblur=0.5 / vbv_maxrate=7680 / vbv_bufsize=20480 / nal_hrd=none / filler=0 / ip_ratio=1.40 / aq=1:1.00
Default : Yes
Forced : No
Audio
ID : 2
Format : AC-3
Format/Info : Audio Coding 3
Format settings, Endianness : Big
Codec ID : A_AC3
Duration : 1 h 30 min
Bit rate mode : Constant
Bit rate : 256 kb/s
Channel(s) : 2 channels
Channel positions : Front: L R
Sampling rate : 48.0 kHz
Frame rate : 31.250 FPS (1536 spf)
Bit depth : 16 bits
Compression mode : Lossy
Stream size : 166 MiB (5%)
Language : Russian
Service kind : Complete Main
Default : Yes
Forced : No

Скриншоты

[Цитировать]



Показать сообщения:    

Текущее время: 29-Май 09:39

Часовой пояс: UTC + 6


Вы не можете начинать темы
Вы не можете отвечать на сообщения
Вы не можете редактировать свои сообщения
Вы не можете удалять свои сообщения
Вы не можете голосовать в опросах
Вы не можете прикреплять файлы к сообщениям
Вы не можете скачивать файлы

!ВНИМАНИЕ!
Сайт не предоставляет электронные версии произведений, а занимается лишь коллекционированием и каталогизацией ссылок, присылаемых и публикуемых на форуме нашими читателями. Если вы являетесь правообладателем какого-либо представленного материала и не желаете, чтобы ссылка на него находилась в нашем каталоге, свяжитесь с нами, и мы незамедлительно удалим ее. Файлы для обмена на трекере предоставлены пользователями сайта, и администрация не несет ответственности за их содержание. Просьба не заливать файлы, защищенные авторскими правами, а также файлы нелегального содержания!