***Уважаемые пользователи и гости !!! Сайт переехал на новый домен Torrents-club.info. Просьба изменить ваши закладки! ***
 
[ Сегодня идет свободное скачивание без начисления Download ]


Статистика раздачи
Нет
 
   
 
 
 
 
Пассажир 57 / Passenger 57 (1992) BDRip-HEVC 1080p Информация о фильме
Название: Пассажир 57
Оригинальное название: Passenger 57
Год выхода: 1992
Жанр: боевик, триллер, криминал
Режиссер: Кевин Хукс
В ролях: Уэсли Снайпс, Брюс Пэйн, Том Сайзмор, Алекс Дэтчер, Брюс Гринвуд, Роберт Хукс, Элизабет Хёрли, Майкл Хорс, Марк Маколей, Эрни Лайвли
О фильме:
Чарльз Рейн — безжалостный и неистовый убийца-террорист. Джон Каттер — хладнокровный полицейский из службы безопасности авиакомпании. Схватка хорошего и плохого парней начинается в воздухе, затем продолжится на земле…

Страна: США
Продолжительность: 01:23:44
Перевод: Дубляж (лицензия), оригинал
Файл
Кодек: HEVC x265 8bit
Качество: BDRip-HEVC 1080p
Видео: 1920x800, 23.976 кадр/сек, 5553 Кбит/сек, 8bit
Звук:
Аудио1: Русская, AC3 384 Кбит/сек, 6 канала(ов),16bit 48,0 КГц
Аудио2: English, AC3 384 Кбит/сек, 6 канала(ов),16bit 48,0 КГц
Субтитры: Русские, English

Mediainfo

General
Unique ID : 186981696186892202626893297995093910305 (0x8CAB5D61D1ED9C79BEE0FF49B4EC2321)
Format : Matroska
Format version : Version 4 / Version 2
File size : 3.70 GiB
Duration : 1 h 23 min
Overall bit rate : 6 322 kb/s
Encoded date : UTC 2017-09-20 16:02:44
Writing application : mkvmerge v13.0.0 ('The Juggler') 64bit
Writing library : libebml v1.3.4 + libmatroska v1.4.5
Cover : Yes
Attachments : cover1.jpg
Video
ID : 1
Format : HEVC
Format/Info : High Efficiency Video Coding
Format profile : Main@L4.1@High
Codec ID : V_MPEGH/ISO/HEVC
Duration : 1 h 23 min
Bit rate : 5 553 kb/s
Width : 1 920 pixels
Height : 800 pixels
Display aspect ratio : 2.40:1
Frame rate mode : Constant
Frame rate : 23.976 (24000/1001) FPS
Color space : YUV
Chroma subsampling : 4:2:0
Bit depth : 8 bits
Bits/(Pixel*Frame) : 0.151
Stream size : 3.25 GiB (88%)
Writing library : x265 2.5+16-bac53338585c:[Windows][GCC 7.1.0][64 bit] 8bit
Encoding settings : cpuid=1050111 / frame-threads=5 / numa-pools=4 / wpp / no-pmode / no-pme / no-psnr / no-ssim / log-level=3 / input-csp=1 / input-res=1920x800 / interlace=0 / total-frames=0 / level-idc=41 / high-tier=1 / uhd-bd=0 / ref=4 / no-allow-non-conformance / no-repeat-headers / annexb / no-aud / no-hrd / info / hash=0 / no-temporal-layers / open-gop / min-keyint=23 / keyint=250 / bframes=12 / b-adapt=2 / b-pyramid / bframe-bias=0 / rc-lookahead=40 / lookahead-slices=5 / scenecut=40 / no-intra-refresh / ctu=64 / min-cu-size=8 / no-rect / no-amp / max-tu-size=32 / tu-inter-depth=2 / tu-intra-depth=2 / limit-tu=0 / rdoq-level=0 / dynamic-rd=0.00 / no-ssim-rd / signhide / no-tskip / nr-intra=0 / nr-inter=0 / no-constrained-intra / strong-intra-smoothing / max-merge=3 / limit-refs=3 / no-limit-modes / me=2 / subme=4 / merange=32 / temporal-mvp / weightp / weightb / no-analyze-src-pics / deblock=-3:-3 / no-sao / no-sao-non-deblock / rd=3 / no-early-skip / rskip / no-fast-intra / no-tskip-fast / no-cu-lossless / no-b-intra / no-splitrd-skip / rdpenalty=0 / psy-rd=2.00 / psy-rdoq=0.00 / no-rd-refine / analysis-reuse-mode=0 / no-lossless / cbqpoffs=0 / crqpoffs=0 / rc=crf / crf=19.0 / qcomp=0.60 / qpstep=4 / stats-write=0 / stats-read=0 / vbv-maxrate=50000 / vbv-bufsize=35714 / vbv-init=0.9 / crf-max=30.0 / crf-min=0.0 / ipratio=1.40 / pbratio=1.30 / aq-mode=2 / aq-strength=1.00 / cutree / zone-count=0 / no-strict-cbr / qg-size=32 / no-rc-grain / qpmax=69 / qpmin=0 / no-const-vbv / sar=1 / overscan=0 / videoformat=5 / range=0 / colorprim=2 / transfer=2 / colormatrix=2 / chromaloc=0 / display-window=0 / max-cll=0,0 / min-luma=0 / max-luma=255 / log2-max-poc-lsb=8 / vui-timing-info / vui-hrd-info / slices=1 / opt-qp-pps / opt-ref-list-length-pps / no-multi-pass-opt-rps / scenecut-bias=0.05 / no-opt-cu-delta-qp / no-aq-motion / no-hdr / no-hdr-opt / no-dhdr10-opt / analysis-reuse-level=5 / scale-factor=0 / refine-intra=0 / refine-inter=0 / refine-mv=0 / no-limit-sao / ctu-info=0
Language : English
Default : Yes
Forced : No
Audio #1
ID : 2
Format : AC-3
Format/Info : Audio Coding 3
Format settings, Endianness : Big
Codec ID : A_AC3
Duration : 1 h 23 min
Bit rate mode : Constant
Bit rate : 384 kb/s
Channel(s) : 6 channels
Channel positions : Front: L C R, Side: L R, LFE
Sampling rate : 48.0 kHz
Frame rate : 31.250 FPS (1536 SPF)
Bit depth : 16 bits
Compression mode : Lossy
Stream size : 230 MiB (6%)
Language : Russian
Service kind : Complete Main
Default : Yes
Forced : No
Audio #2
ID : 3
Format : AC-3
Format/Info : Audio Coding 3
Format settings, Endianness : Big
Codec ID : A_AC3
Duration : 1 h 23 min
Bit rate mode : Constant
Bit rate : 384 kb/s
Channel(s) : 6 channels
Channel positions : Front: L C R, Side: L R, LFE
Sampling rate : 48.0 kHz
Frame rate : 31.250 FPS (1536 SPF)
Bit depth : 16 bits
Compression mode : Lossy
Stream size : 230 MiB (6%)
Language : English
Service kind : Complete Main
Default : No
Forced : No
Text #1
ID : 4
Format : UTF-8
Codec ID : S_TEXT/UTF8
Codec ID/Info : UTF-8 Plain Text
Duration : 1 h 19 min
Bit rate : 72 b/s
Count of elements : 854
Stream size : 41.9 KiB (0%)
Language : Russian
Default : Yes
Forced : No
Text #2
ID : 5
Format : UTF-8
Codec ID : S_TEXT/UTF8
Codec ID/Info : UTF-8 Plain Text
Duration : 1 h 20 min
Bit rate : 63 b/s
Count of elements : 1025
Stream size : 37.3 KiB (0%)
Language : English
Default : No
Forced : No
Menu
00:00:00.000 : :Глава 1
00:09:55.469 : :Глава 2
00:19:39.720 : :Глава 3
00:29:12.584 : :Глава 4
00:39:04.800 : :Глава 5
00:49:26.088 : :Глава 6
00:59:28.022 : :Глава 7
01:10:21.050 : :Глава 8
01:20:38.667 : :Глава 9
01:23:43.393 : :Глава 10

Скриншоты

[Цитировать]



Показать сообщения:    

Текущее время: 05-Июн 05:59

Часовой пояс: UTC + 6


Вы не можете начинать темы
Вы не можете отвечать на сообщения
Вы не можете редактировать свои сообщения
Вы не можете удалять свои сообщения
Вы не можете голосовать в опросах
Вы не можете прикреплять файлы к сообщениям
Вы не можете скачивать файлы

!ВНИМАНИЕ!
Сайт не предоставляет электронные версии произведений, а занимается лишь коллекционированием и каталогизацией ссылок, присылаемых и публикуемых на форуме нашими читателями. Если вы являетесь правообладателем какого-либо представленного материала и не желаете, чтобы ссылка на него находилась в нашем каталоге, свяжитесь с нами, и мы незамедлительно удалим ее. Файлы для обмена на трекере предоставлены пользователями сайта, и администрация не несет ответственности за их содержание. Просьба не заливать файлы, защищенные авторскими правами, а также файлы нелегального содержания!