***Уважаемые пользователи и гости !!! Сайт переехал на новый домен Torrents-club.info. Просьба изменить ваши закладки! ***
 
[ Сегодня идет свободное скачивание без начисления Download ]


Статистика раздачи
Скачал: [ 1 ]
 
   
 
 
 
 
Прометей / Prometheus (2012) BDRip 720p Информация о фильме
Название: Прометей
Оригинальное название: Prometheus
Год выхода: 2012
Жанр: фантастика, триллер, приключения
Режиссер: Ридли Скотт
В ролях: Нуми Рапас, Майкл Фассбендер, Шарлиз Терон, Идрис Эльба, Гай Пирс, Логан Маршалл-Грин, Шон Харрис, Рейф Сполл, Иман Эллиотт, Бенедикт Вонг, Кейт Дики, Брануэлл Донахи, Владимир 'Фурдо' Фурдик, Шэйн Штейн, Йен Уайт, Джон Лебар-О фильме:
Во время археологических раскопок было найдено подтверждение тому, что человечество не одиноко во вселенной и на основании этого в дальний космос отправляется полунаучная экспедиция спонсируемая амбициозным меценатом Питером Вэйландом. Перед героями фильма стоит нелегкая задача: разгадать главную загадку бытия человечества и не ударить в грязь лицом (по фильму в черную жидкость) перед представителями высшей инженерной расы.-Дополнительная информация:
Это самая полная версия "Прометея" из всех ныне существующих.
В фильм кроме удалённых (не по причине ненужности, а чтобы не тормозить основной сюжет фильма!) добавлены уникальные сцены ранее не издававшиеся на носителях или издававшиеся, но не в полном виде. Эти сцены не просто добавлены, а органично вплетены в фильм. Некоторые же из них являются восстановленными. Проведена колоссальная работа по колорированию и звуку.
В фильме представлены самые полные сцены прибытия инженеров, включая напутственное слово от старшего инженера, самую полную сцену пробуждения инженера, а также эпическую битву доктора Шоу с "Создателем". Также впервые на экране кадры исследовательского объекта Питера Вейланда на Марсе, полный диалог Милборна и Файфилда после пробуждения, полный вариант просмотра Дэвидом фильма "Лоуренс Аравийский" и многие другие, порой секундные сцены.
В данной версии фильм смотрится гораздо органичнее и выглядит целостным.-Страна: США, Великобритания
Студия: 20th Century Fox, Dune Entertainment, Scott Free Productions, Brandywine Productions Ltd.
Продолжительность: 02:41:54
Перевод : Любительский (одноголосый закадровый), дубляж + одноголосый на удаленные и альтернативные сцены, английский-Файл
Кодек: MPEG4, Video (H264)
Качество: BDRip 720p
Видео: 1280x536, 23.976fps, Overall bit rate: 8 349 Kbps
Звук:
Аудио 1: Russian, ac3, 48000 Hz, 5.1, 448 kb/s, Любительский (одноголосый закадровый) KEWE
Аудио 2: Russian, ac3, 48000 Hz, 5.1, 448 kb/s, Профессиональный (дублированный) + одноголосый на удаленные и альтернативные сцены (KEWE)
Аудио 3: English, ac3, 48000 Hz, 5.1, 448 kb/s (Оригинал)
Субтитры: русские (на речь Инженеров и надписи), русские (полные), английские
Семпл-

MediaInfo

General
Unique ID : 252983973798426923702445684754871913083 (0xBE52F0E93B89E2DDABEC18BF610A8A7B)
Complete name : Prometheus (2012) Workprint Edition (Extended Edit).mkv
Format : Matroska
Format version : Version 4 / Version 2
File size : 9.44 GiB
Duration : 2 h 41 min
Overall bit rate : 8 349 kb/s
Encoded date : UTC 2017-10-13 19:45:48
Writing application : mkvmerge v9.7.1 ('Pandemonium') 32bit
Writing library : libebml v1.3.4 + libmatroska v1.4.5
Video
ID : 1
Format : AVC
Format/Info : Advanced Video Codec
Format profile : High@L4.1
Format settings, CABAC : Yes
Format settings, ReFrames : 4 frames
Codec ID : V_MPEG4/ISO/AVC
Duration : 2 h 41 min
Bit rate : 7 000 kb/s
Width : 1 280 pixels
Height : 536 pixels
Display aspect ratio : 2.40:1
Frame rate mode : Constant
Frame rate : 23.976 (23976/1000) FPS
Color space : YUV
Chroma subsampling : 4:2:0
Bit depth : 8 bits
Scan type : Progressive
Bits/(Pixel*Frame) : 0.426
Stream size : 7.92 GiB (84%)
Writing library : x264 core 130 r2273 b3065e6
Encoding settings : cabac=1 / ref=3 / deblock=1:-1:-1 / analyse=0x3:0x113 / me=hex / subme=7 / psy=1 / psy_rd=1.00:0.15 / mixed_ref=1 / me_range=16 / chroma_me=1 / trellis=1 / 8x8dct=1 / cqm=0 / deadzone=21,11 / fast_pskip=1 / chroma_qp_offset=-3 / threads=6 / lookahead_threads=1 / sliced_threads=0 / nr=0 / decimate=1 / interlaced=0 / bluray_compat=0 / constrained_intra=0 / bframes=3 / b_pyramid=2 / b_adapt=1 / b_bias=0 / direct=1 / weightb=1 / open_gop=0 / weightp=2 / keyint=240 / keyint_min=24 / scenecut=40 / intra_refresh=0 / rc_lookahead=40 / rc=2pass / mbtree=1 / bitrate=7000 / ratetol=1.0 / qcomp=0.60 / qpmin=0 / qpmax=69 / qpstep=4 / cplxblur=20.0 / qblur=0.5 / vbv_maxrate=62500 / vbv_bufsize=78125 / nal_hrd=none / ip_ratio=1.40 / aq=1:1.00
Default : Yes
Forced : No
Color range : Limited
Color primaries : BT.709
Transfer characteristics : BT.709
Matrix coefficients : BT.709
Audio #1
ID : 2
Format : AC-3
Format/Info : Audio Coding 3
Mode extension : CM (complete main)
Format settings, Endianness : Big
Codec ID : A_AC3
Duration : 2 h 41 min
Bit rate mode : Constant
Bit rate : 448 kb/s
Channel(s) : 6 channels
Channel positions : Front: L C R, Side: L R, LFE
Sampling rate : 48.0 kHz
Frame rate : 31.250 FPS (1536 spf)
Bit depth : 16 bits
Compression mode : Lossy
Stream size : 519 MiB (5%)
Title : KEWE
Language : Russian
Default : Yes
Forced : No
Audio #2
ID : 3
Format : AC-3
Format/Info : Audio Coding 3
Mode extension : CM (complete main)
Format settings, Endianness : Big
Codec ID : A_AC3
Duration : 2 h 41 min
Bit rate mode : Constant
Bit rate : 448 kb/s
Channel(s) : 6 channels
Channel positions : Front: L C R, Side: L R, LFE
Sampling rate : 48.0 kHz
Frame rate : 31.250 FPS (1536 spf)
Bit depth : 16 bits
Compression mode : Lossy
Stream size : 519 MiB (5%)
Title : Дубляж + KEWE
Language : Russian
Default : No
Forced : No
Audio #3
ID : 4
Format : AC-3
Format/Info : Audio Coding 3
Mode extension : CM (complete main)
Format settings, Endianness : Big
Codec ID : A_AC3
Duration : 2 h 41 min
Bit rate mode : Constant
Bit rate : 448 kb/s
Channel(s) : 6 channels
Channel positions : Front: L C R, Side: L R, LFE
Sampling rate : 48.0 kHz
Frame rate : 31.250 FPS (1536 spf)
Bit depth : 16 bits
Compression mode : Lossy
Stream size : 519 MiB (5%)
Title : Original
Language : English
Default : No
Forced : No
Text #1
ID : 5
Format : UTF-8
Codec ID : S_TEXT/UTF8
Codec ID/Info : UTF-8 Plain Text
Duration : 2 h 21 min
Bit rate : 2 b/s
Count of elements : 34
Stream size : 2.10 KiB (0%)
Title : Речь инженеров
Language : Russian
Default : Yes
Forced : Yes
Text #2
ID : 6
Format : UTF-8
Codec ID : S_TEXT/UTF8
Codec ID/Info : UTF-8 Plain Text
Duration : 2 h 31 min
Bit rate : 66 b/s
Count of elements : 1466
Stream size : 74.0 KiB (0%)
Title : Полные
Language : Russian
Default : No
Forced : No
Text #3
ID : 7
Format : UTF-8
Codec ID : S_TEXT/UTF8
Codec ID/Info : UTF-8 Plain Text
Duration : 2 h 31 min
Bit rate : 45 b/s
Count of elements : 1817
Stream size : 50.5 KiB (0%)
Title : Original
Language : English
Default : No
Forced : No

Скриншоты

Cписок добавленных эпизодов

Жирным выделены сцены/моменты/фрагменты представленные впервые!
01. 00:03:13 - 00:06:26 Прибытие Инженеров(Самый полный монтаж, включая напутственную речь старшего Инженера);
02. 00:06:28 - 00:13:25 Конференция TED, 2023;
03. 00:14:23 - 00:14:27 Доктор Шоу улыбается;
04. 00:15:53 - 00:18:20 Запрос Элизабет Шоу в корпорацию Вейланда о спонсорской помощи(Фрагменты исследовательского объекта Питера Вейланда на Марсе);
05. 00:18:23 - 00:25:25 Трансмиссия (сообщение Инженерам посланное с Прометея);
06. 00:25:26 - 00:27:47 С днём рождения, Дэвид;
07. 00:30:57 - 00:32:17 Дэвид смотрит фильм "Лоуренс Аравийский"(расширенная версия);
08. 00:35:05 - 00:36:02 Сезон настал (расширенный диалог капитана Джанека и Викерс);
09. 00:35:33 - 00:35:34 Джанек произносит Оу-оу-оу;
10. 00:36:03 - 00:36:16 У Милберна занемела рука;
11. 00:36:52 - 00:37:04 Расширенный диалог между доктором Шоу и Холловеем;
12. 00:42:02 - 00:42:14 Доктор Шоу обижена на Холловея;
13. 00:44:58 - 00:45:03 Прометей запускает зонды в атмосферу;
14. 00:47:59 - 00:48:01 "Прометей приземлился!";
15. 00:55:19 - 00:55:24 Чарли Холловей снимает шлем;
16. 00:56:02 - 00:56:46 Наш первый инопланетянин;
17. 01:03:10 - 01:03:14 Дэвид рассматривает вазу с "черной жижей;
18. 01:07:36 - 01:08:21 Кожа;
19. 01:09:13 - 01:10:39 Мы больше не одни (Легенда о женщине из Африки);
20. 01:21:22 - 01:24:38 Странные компаньоны (более расширенная сцена, с прорисованным виртуальным экраном)(замена);
21. 01:27:46 - 01:28:30 Милберн и "змея" (добавлена рамка для ловли змей);
22. 01:29:31 - 01:30:58 Похмелье Холловея;
23. 01:41:00 - 01:41:24 Задача Дэвида;
24. 01:41:03 - 01:41:06 На шлеме логотип "Вейланд Индастриз";
25. 01:46:31 - 01:50:07 Джанек информирует Викерс;
26. 01:54:40 - 01:56:38 Файфилд атакует (замена);
27. 01:55:13 - 01:55:21 Файфилд в полный рост;
28. 01:59:47 - 01:59:48 Доктор Шоу вскидывает руки в молитве;
29. 02:01:22 - 02:01:36 Диалог доктора Шоу и Джанека (расширеный фрагмент);
30. 02:02:22 - 02:06:12 Король царит (диалог между Питером Вейландом и Викерс);
31. 02:09:10 - 02:13:22 Инженер говорит(самый полный монтаж, включая еще один монолог Инженера);
32. 02:14:10 - 02:14:44 Инженер активирует корабль (другой монтаж, Инженер крупным планом);
33. 02:18:00 - 02:18:09 Викерс одевает защитный костюм (расширенный фрагмент);
34. 02:22:06 - 02:22:08 Инженер эвакуируется с корабля;
35. 02:22:19 - 02:29:19 Финальная Битва Шоу( самый полный монтаж, включая кадры проникновения Инженера в спасательный отсек. Добавлено музыкальное сопровождение. Лицо Инженера НЕ ОБОЖЖЕНО);
36. 02:30:51 - 02:31:30 Доктор Шоу спрашивает Дэвида о том, что сказал Инженер;
37. 02:32:59 - 02:33:02 "Рай".
-Огромная благодарность KEWE и zoritos за полную озвучку фильма и подготовку данного релиза!

[Цитировать]



Показать сообщения:    

Текущее время: 31-Май 18:50

Часовой пояс: UTC + 6


Вы не можете начинать темы
Вы не можете отвечать на сообщения
Вы не можете редактировать свои сообщения
Вы не можете удалять свои сообщения
Вы не можете голосовать в опросах
Вы не можете прикреплять файлы к сообщениям
Вы не можете скачивать файлы

!ВНИМАНИЕ!
Сайт не предоставляет электронные версии произведений, а занимается лишь коллекционированием и каталогизацией ссылок, присылаемых и публикуемых на форуме нашими читателями. Если вы являетесь правообладателем какого-либо представленного материала и не желаете, чтобы ссылка на него находилась в нашем каталоге, свяжитесь с нами, и мы незамедлительно удалим ее. Файлы для обмена на трекере предоставлены пользователями сайта, и администрация не несет ответственности за их содержание. Просьба не заливать файлы, защищенные авторскими правами, а также файлы нелегального содержания!