***Уважаемые пользователи и гости !!! Сайт переехал на новый домен Torrents-club.info. Просьба изменить ваши закладки! ***
 
[ Сегодня идет свободное скачивание без начисления Download ]


Статистика раздачи
Нет
 
   
 
 
 
 
Мы с дедушкой (2014) WEBRip - Производство: Россия
Жанр: Драма, семейный
Режиссер: Александр Кулямин
Продюсер: Елена Борисова, Александр Остапко
Актеры: Юрий Назаров, Тимофей Разуваев, Алексей Тихонов, Екатерина Альбрандт, Людмила Мальцева, Эля Макарян, Оля Воронцова, Арсений Кулаков, Александр Кулямин, Сергей Понтаплёв
Описание:
Картина рассказывает о мальчике, который всю жизнь прожил в городе и о деревне имеет смутные представления. Но однажды его отправят на каникулы к дедушке. Будут ссоры, непонимание, и только случай, который чуть не стоил деду жизни, всё изменит.

Возраст: 6+ (зрителям, достигшим 6 лет)
Продолжительность: 01:33:20
Качество видео: WEBRip
Субтитры: Отсутствуют
Видео: Xvid, 720x400 (16:9), ~1875 Kbps
Аудио: AC3, 2 ch, 192 Kbps

Mediainfo:

Общее
Полное имя : D:\Мы с дедушкой (2014) WEBRip.by.Алехаndr.avi
Формат : AVI
Формат/Информация : Audio Video Interleave
Профиль формата : OpenDML
Размер файла : 1,36 Гбайт
Продолжительность : 1 ч. 33 м.
Общий поток : 2080 Кбит/сек
Программа кодирования : Lavf54.63.104
Видео
Идентификатор : 0
Формат : xvid
Идентификатор кодека : xvid
Продолжительность : 1 ч. 33 м.
Битрейт : 1875 Кбит/сек
Ширина : 720 пикселей
Высота : 400 пикселей
Соотношение сторон : 16:9
Частота кадров : 25,000 кадров/сек
Тип развёртки : Прогрессивная
Бит/(Пиксели*Кадры) : 0.260
Размер потока : 1,22 Гбайт (90%)
Аудио
Идентификатор : 1
Формат : AC-3
Формат/Информация : Audio Coding 3
Параметр Endianness формата : Big
Идентификатор кодека : 2000
Продолжительность : 1 ч. 33 м.
Вид битрейта : Постоянный
Битрейт : 192 Кбит/сек
Каналы : 2 канала
Расположение каналов : Front: L R
Частота : 48,0 КГц
Частота кадров : 31,250 кадров/сек (1536 SPF)
Битовая глубина : 16 бит
Метод сжатия : С потерями
Размер потока : 128 Мбайт (9%)
Выравнивание : Соединение по промежуткам
Продолжительность промежутка : 32 мс. (0,80 видеокадр)
ServiceKind/String : Complete Main
Скриншоты:

[Цитировать]



Показать сообщения:    

Текущее время: 07-Июн 06:45

Часовой пояс: UTC + 6


Вы не можете начинать темы
Вы не можете отвечать на сообщения
Вы не можете редактировать свои сообщения
Вы не можете удалять свои сообщения
Вы не можете голосовать в опросах
Вы не можете прикреплять файлы к сообщениям
Вы не можете скачивать файлы

!ВНИМАНИЕ!
Сайт не предоставляет электронные версии произведений, а занимается лишь коллекционированием и каталогизацией ссылок, присылаемых и публикуемых на форуме нашими читателями. Если вы являетесь правообладателем какого-либо представленного материала и не желаете, чтобы ссылка на него находилась в нашем каталоге, свяжитесь с нами, и мы незамедлительно удалим ее. Файлы для обмена на трекере предоставлены пользователями сайта, и администрация не несет ответственности за их содержание. Просьба не заливать файлы, защищенные авторскими правами, а также файлы нелегального содержания!