***Уважаемые пользователи и гости !!! Сайт переехал на новый домен Torrents-club.info. Просьба изменить ваши закладки! ***
 
[ Сегодня идет свободное скачивание без начисления Download ]


Статистика раздачи
Нет
 
   
 
 
 
 
Ждите неожиданного [1-4 из 4] (2017) WEB-DLRip Название: Ждите неожиданного
Жанр: Детектив
Год выпуска: 2017
Страна: Россия
Производство: ООО «Свэлл Фильм»
Продолжительность: 4 x ~ 00:45:00
Перевод: Не требуется
Режиссер: Игорь Нурисламов
В ролях: Эра Зиганшина, Анна Васильева, Сергей Перегудов, Алёна Хмельницкая, Андрей Егоров, Дмитрий Могучев
Описание: По одноименному роману Татьяны Устиновой. Таша отправляется в свой последний отпуск на теплоходе по Волге и дает себе обещание: никто не посмеет испортить ее путешествие. Однако почти сразу все идет наперекосяк. В первый же вечер за бортом оказываются человек и собака, Таша храбро и безрассудно кидается их спасать. И это только начало странных и зловещих событий. У Розалии Карловны пропадает чемодан с драгоценностями, следом убивают судового доктора. Таше кажется страшно важным разобраться в происходящем - чтобы жить дальше. А на помощь ей приходит Степан Петрович...
Технические данные файла:
Качество: WEB-DLRip
Формат: AVI
Видео кодек: XviD
Аудио кодек: AC3
Видео: 720x400 (16:9), 25 fps, XviD 73 ~ 1700 kbps avg, 0.27 bit/pixel
Аудио: 48 kHz, 2 ch, 192 kbps avg
Доп. ин-ция:
Релиз от

MediaInfo:

Общее
Полное имя : D:\моё видио\Zdite.neozidanovo.2017.WEB-DLRip.Files-x\01.Zdite.neozidanovo.2017.WEB-DLRip.Files-x.avi
Формат : AVI
Формат/Информация : Audio Video Interleave
Размер файла : 550 Мбайт
Продолжительность : 43 м.
Общий поток : 1753 Кбит/сек
Программа кодирования : VirtualDubMod 1.5.10.3 | www.virtualdub-fr.org || (build 2550/release)
Библиотека кодирования : VirtualDubMod build 2550/release
Видео
Идентификатор : 0
Формат : MPEG-4 Visual
Профиль формата : Advanced Simple@L5
Параметр BVOP формата : 1
Параметр QPel формата : Нет
Параметр GMC формата : Без точки перехода
Параметр матрицы формата : Выборочная
Идентификатор кодека : XVID
Идентификатор кодека/Подсказка : XviD
Продолжительность : 43 м.
Битрейт : 1551 Кбит/сек
Ширина : 720 пикселей
Высота : 400 пикселей
Соотношение сторон : 16:9
Частота кадров : 25,000 кадров/сек
Цветовое пространство : YUV
Субдискретизация насыщенности : 4:2:0
Битовая глубина : 8 бит
Тип развёртки : Прогрессивная
Метод сжатия : С потерями
Бит/(Пиксели*Кадры) : 0.215
Размер потока : 487 Мбайт (88%)
Библиотека кодирования : XviD 73
Аудио
Идентификатор : 1
Формат : AC-3
Формат/Информация : Audio Coding 3
Расширение режима : CM (complete main)
Параметр Endianness формата : Big
Идентификатор кодека : 2000
Продолжительность : 43 м.
Вид битрейта : Постоянный
Битрейт : 192 Кбит/сек
Каналы : 2 канала
Расположение каналов : Front: L R
Частота : 48,0 КГц
Битовая глубина : 16 бит
Метод сжатия : С потерями
Размер потока : 60,3 Мбайт (11%)
Выравнивание : Разделение по промежуткам
Продолжительность промежутка : 40 мс. (1,00 видеокадр)
Время предзагрузки промежутка : 500 мс.

Скриншоты

[Цитировать]



Показать сообщения:    

Текущее время: 05-Июн 05:08

Часовой пояс: UTC + 6


Вы не можете начинать темы
Вы не можете отвечать на сообщения
Вы не можете редактировать свои сообщения
Вы не можете удалять свои сообщения
Вы не можете голосовать в опросах
Вы не можете прикреплять файлы к сообщениям
Вы не можете скачивать файлы

!ВНИМАНИЕ!
Сайт не предоставляет электронные версии произведений, а занимается лишь коллекционированием и каталогизацией ссылок, присылаемых и публикуемых на форуме нашими читателями. Если вы являетесь правообладателем какого-либо представленного материала и не желаете, чтобы ссылка на него находилась в нашем каталоге, свяжитесь с нами, и мы незамедлительно удалим ее. Файлы для обмена на трекере предоставлены пользователями сайта, и администрация не несет ответственности за их содержание. Просьба не заливать файлы, защищенные авторскими правами, а также файлы нелегального содержания!