***Уважаемые пользователи и гости !!! Сайт переехал на новый домен Torrents-club.info. Просьба изменить ваши закладки! ***
 
[ Сегодня идет свободное скачивание без начисления Download ]


Статистика раздачи
Скачал: [ 1 ]
 
   
 
 
 
 
Звёздные войны: Эпизод 2 – Атака клонов / Star Wars: Episode II - Attack of the Clones Информация о фильме
Название: Звёздные войны: Эпизод 2 – Атака клонов
Оригинальное название: Star Wars: Episode II - Attack of the Clones
Год выхода: 2002
Жанр: фантастика, приключения
Режиссер: Джордж Лукас
В ролях: Юэн МакГрегор, Хейден Кристенсен, Натали Портман, Кристофер Ли, Сэмюэл Л. Джексон, Фрэнк Оз, Иен МакДермид, Пернилла Аугуст, Темуэра Моррисон, Джимми Смитс, Джек Томпсон, Лианна Уолсмен
О фильме:
Действие разворачивается через 10 лет после событий, описанных в первом эпизоде знаменитой саги. Республика все глубже погружается в пучину противоречий и хаоса. Движение сепаратистов, представленное сотнями планет и могущественным альянсом корпораций, грозит стать новой угрозой для Галактики, с которой не смогут справиться даже джедаи. Назревающий конфликт, заранее спланированный могущественными, но пока еще не разоблаченными силами, ведет к началу Клонических войн и к закату республики. Чтобы противостоять угрозе вселенских масштабов, Верховный канцлер Палпатин добивается консолидации власти в республике в своих руках и отдает приказ о создании республиканской армии для поддержки малочисленной группы джедаев в их борьбе с превосходящим противником.

Страна: США
Продолжительность: 02:22:27
Перевод: Дубляж (Нева-фильм), оригинал
Файл
Кодек: HEVC x265 10bit
Качество: BDRip-HEVC 1080p
Видео: 1920x816, 23.976 кадр/сек, 5403 Кбит/сек, 10bit
Звук:
Аудио1: Русская, AC3 448 Кбит/сек, 6 канала(ов),16bit 48,0 КГц
Аудио2: English, AC3 448 Кбит/сек, 6 канала(ов),16bit 48,0 КГц
Субтитры: Русские форсированные, полные, English

Mediainfo

General
Unique ID : 210757272673156236243942898775922796991 (0x9E8E5FCE721ADB1EA87CF1E4097369BF)
Format : Matroska
Format version : Version 4 / Version 2
File size : 6.27 GiB
Duration : 2 h 22 min
Overall bit rate : 6 302 kb/s
Movie name : Rip_by_Cthulhu
Encoded date : UTC 2017-09-24 13:54:52
Writing application : mkvmerge v13.0.0 ('The Juggler') 64bit
Writing library : libebml v1.3.4 + libmatroska v1.4.5
Cover : Yes
Attachments : cover2.jpg
Video
ID : 1
Format : HEVC
Format/Info : High Efficiency Video Coding
Format profile : Main 10@L4.1@High
Codec ID : V_MPEGH/ISO/HEVC
Duration : 2 h 22 min
Bit rate : 5 403 kb/s
Width : 1 920 pixels
Height : 816 pixels
Display aspect ratio : 2.35:1
Frame rate mode : Constant
Frame rate : 23.976 (24000/1001) FPS
Color space : YUV
Chroma subsampling : 4:2:0
Bit depth : 10 bits
Bits/(Pixel*Frame) : 0.144
Stream size : 5.38 GiB (86%)
Writing library : x265 2.5+16-bac53338585c:[Windows][GCC 7.1.0][64 bit] 10bit
Encoding settings : cpuid=1050111 / frame-threads=5 / numa-pools=4 / wpp / no-pmode / no-pme / no-psnr / no-ssim / log-level=3 / input-csp=1 / input-res=1920x816 / interlace=0 / total-frames=0 / level-idc=41 / high-tier=1 / uhd-bd=0 / ref=4 / no-allow-non-conformance / no-repeat-headers / annexb / no-aud / no-hrd / info / hash=0 / no-temporal-layers / open-gop / min-keyint=23 / keyint=250 / bframes=8 / b-adapt=2 / b-pyramid / bframe-bias=0 / rc-lookahead=40 / lookahead-slices=5 / scenecut=40 / no-intra-refresh / ctu=64 / min-cu-size=8 / no-rect / no-amp / max-tu-size=32 / tu-inter-depth=2 / tu-intra-depth=2 / limit-tu=0 / rdoq-level=0 / dynamic-rd=0.00 / no-ssim-rd / signhide / no-tskip / nr-intra=0 / nr-inter=0 / no-constrained-intra / strong-intra-smoothing / max-merge=3 / limit-refs=3 / no-limit-modes / me=2 / subme=3 / merange=32 / temporal-mvp / weightp / weightb / no-analyze-src-pics / deblock=-3:-3 / no-sao / no-sao-non-deblock / rd=3 / no-early-skip / rskip / no-fast-intra / no-tskip-fast / no-cu-lossless / no-b-intra / no-splitrd-skip / rdpenalty=0 / psy-rd=2.00 / psy-rdoq=0.00 / no-rd-refine / analysis-reuse-mode=0 / no-lossless / cbqpoffs=0 / crqpoffs=0 / rc=crf / crf=17.5 / qcomp=0.60 / qpstep=4 / stats-write=0 / stats-read=0 / vbv-maxrate=50000 / vbv-bufsize=35714 / vbv-init=0.9 / crf-max=30.0 / crf-min=0.0 / ipratio=1.40 / pbratio=1.30 / aq-mode=3 / aq-strength=1.00 / cutree / zone-count=0 / no-strict-cbr / qg-size=32 / no-rc-grain / qpmax=69 / qpmin=0 / no-const-vbv / sar=1 / overscan=0 / videoformat=5 / range=0 / colorprim=2 / transfer=2 / colormatrix=2 / chromaloc=0 / display-window=0 / max-cll=0,0 / min-luma=0 / max-luma=1023 / log2-max-poc-lsb=8 / vui-timing-info / vui-hrd-info / slices=1 / opt-qp-pps / opt-ref-list-length-pps / no-multi-pass-opt-rps / scenecut-bias=0.05 / no-opt-cu-delta-qp / no-aq-motion / no-hdr / no-hdr-opt / no-dhdr10-opt / analysis-reuse-level=5 / scale-factor=0 / refine-intra=0 / refine-inter=0 / refine-mv=0 / no-limit-sao / ctu-info=0
Default : Yes
Forced : No
Audio #1
ID : 2
Format : AC-3
Format/Info : Audio Coding 3
Format settings, Endianness : Big
Codec ID : A_AC3
Duration : 2 h 22 min
Bit rate mode : Constant
Bit rate : 448 kb/s
Channel(s) : 6 channels
Channel positions : Front: L C R, Side: L R, LFE
Sampling rate : 48.0 kHz
Frame rate : 31.250 FPS (1536 SPF)
Bit depth : 16 bits
Compression mode : Lossy
Stream size : 457 MiB (7%)
Language : Russian
Service kind : Complete Main
Default : Yes
Forced : No
Audio #2
ID : 3
Format : AC-3
Format/Info : Audio Coding 3
Format settings, Endianness : Big
Codec ID : A_AC3
Duration : 2 h 22 min
Bit rate mode : Constant
Bit rate : 448 kb/s
Channel(s) : 6 channels
Channel positions : Front: L C R, Side: L R, LFE
Sampling rate : 48.0 kHz
Frame rate : 31.250 FPS (1536 SPF)
Bit depth : 16 bits
Compression mode : Lossy
Delay relative to video : 1 s 258 ms
Stream size : 456 MiB (7%)
Language : English
Service kind : Complete Main
Default : No
Forced : No
Text #1
ID : 4
Format : UTF-8
Codec ID : S_TEXT/UTF8
Codec ID/Info : UTF-8 Plain Text
Duration : 1 h 55 min
Bit rate : 1 b/s
Count of elements : 19
Stream size : 1.02 KiB (0%)
Title : rus forced
Language : Russian
Default : Yes
Forced : No
Text #2
ID : 5
Format : UTF-8
Codec ID : S_TEXT/UTF8
Codec ID/Info : UTF-8 Plain Text
Duration : 2 h 11 min
Bit rate : 76 b/s
Count of elements : 1228
Stream size : 73.5 KiB (0%)
Title : rus full
Language : Russian
Default : No
Forced : No
Text #3
ID : 6
Format : UTF-8
Codec ID : S_TEXT/UTF8
Codec ID/Info : UTF-8 Plain Text
Duration : 2 h 11 min
Bit rate : 42 b/s
Count of elements : 1219
Stream size : 41.0 KiB (0%)
Language : English
Default : No
Forced : No
Menu
00:00:00.000 : :Начало
00:00:23.440 : :Атака клонов
00:01:50.527 : :Возвращение на Корусант
00:04:22.095 : :Встреча у канцлера
00:07:00.002 : :Старые друзья
00:10:28.961 : :Наемные убийцы
00:14:19.900 : :Погоня на спидерах
00:21:35.293 : :В клубе
00:24:48.236 : :Новые поручения
00:29:45.867 : :Путешествие инкогнито
00:31:33.474 : :Закусочная Декса
00:33:48.526 : :Архив джедаев
00:34:50.505 : :"Положено любить"
00:36:05.121 : :Йода и юные ученики
00:38:25.928 : :Возвпащение на Набу
00:39:25.362 : :Аудиенция у королевы
00:40:56.370 : :Прибытие на Камино
00:42:12.780 : :Встреча с Лама Су
00:44:02.014 : :Тайный поцелуй
00:45:50.414 : :Осмотр клонов
00:47:50.075 : :Дразнить сенатора
00:50:21.017 : :Апартаменты Дженго
00:53:01.428 : :Запретная любовь
00:56:44.818 : :Доклад Оби-Вана
00:58:56.699 : :Ночной кошмар
01:00:46.059 : :Оби-Ван против Дженго
01:03:41.192 : :Обратно на Татуин
01:06:24.355 : :Погоня в астероидах
01:11:18.774 : :Ферма Ларсов
01:14:01.353 : :Поиск Энакина
01:15:23.477 : :Сепаратистский заговор Дуку
01:17:48.872 : :Лагерь таскенов
01:21:40.353 : :Вне досягаемости
01:23:46.896 : :"Ты не всесилен"
01:28:10.159 : :Враги разоблачены
01:30:52.905 : :Оби-Ван в плену
01:33:38.487 : :Чрезвычайные полномочия
01:35:27.847 : :Фабрика дроидов
01:42:44.867 : :Признание в любви
01:45:14.016 : :Арена
01:49:53.628 : :"Веселью конец"
01:56:22.475 : :Войска Йоды
01:57:47.602 : :Война клонов
02:00:29.180 : :Командный пункт
02:04:48.981 : :Дуэль с Дуку
02:07:41.945 : :Мастер Йода
02:11:23.667 : :"Замечательно, лорд Тиранус"
02:12:54.883 : :"Война клоническая началась"
02:14:49.247 : :Тайный союз
02:15:54.938 : :Финальные титры

Скриншоты

[Цитировать]



Показать сообщения:    

Текущее время: 07-Июн 11:53

Часовой пояс: UTC + 6


Вы не можете начинать темы
Вы не можете отвечать на сообщения
Вы не можете редактировать свои сообщения
Вы не можете удалять свои сообщения
Вы не можете голосовать в опросах
Вы не можете прикреплять файлы к сообщениям
Вы не можете скачивать файлы

!ВНИМАНИЕ!
Сайт не предоставляет электронные версии произведений, а занимается лишь коллекционированием и каталогизацией ссылок, присылаемых и публикуемых на форуме нашими читателями. Если вы являетесь правообладателем какого-либо представленного материала и не желаете, чтобы ссылка на него находилась в нашем каталоге, свяжитесь с нами, и мы незамедлительно удалим ее. Файлы для обмена на трекере предоставлены пользователями сайта, и администрация не несет ответственности за их содержание. Просьба не заливать файлы, защищенные авторскими правами, а также файлы нелегального содержания!