***Уважаемые пользователи и гости !!! Сайт переехал на новый домен Torrents-club.info. Просьба изменить ваши закладки! ***
 
[ Сегодня идет свободное скачивание без начисления Download ]


Статистика раздачи
Скачал: [ 1 ]
 
   
 
 
 
 
Звёздные войны: Эпизод 5 – Империя наносит ответный удар / Star Wars: Episode V - The Empire Strikes Back Информация о фильме
Название: Звёздные войны: Эпизод 5 – Империя наносит ответный удар
Оригинальное название: Star Wars: Episode V - The Empire Strikes Back
Год выхода: 1980
Жанр: фантастика, приключения
Режиссер: Ирвин Кершнер
В ролях: Марк Хэмилл, Харрисон Форд, Кэрри Фишер, Билли Ди Уильямс, Энтони Дэниелс, Дэвид Праус, Питер Мейхью, Кенни Бейкер, Фрэнк Оз, Алек Гиннесс
О фильме:
Борьба за Галактику обостряется в пятом эпизоде космической саги. Войска Императора начинают массированную атаку на повстанцев и их союзников.
Хан Соло и принцесса Лейя укрываются в Заоблачном Городе, в котором их и захватывает Дарт Вейдер, в то время как Люк Скайуокер находится на таинственной планете джунглей Дагобар. Там Мастер — джедай Йода обучает молодого рыцаря навыкам обретения Силы. Люк даже не предполагает, как скоро ему придется воспользоваться знаниями старого Мастера: впереди битва с превосходящими силами Императора и смертельный поединок с Дартом Вейдером..
Локализованная версия

Страна: США
Продолжительность: 02:07:21
Перевод: Дубляж (CPIG)
Файл
Кодек: HEVC x265 10bit
Качество: BDRip-HEVC 1080p
Видео: 1920x816, 23.976 кадр/сек, 5731 Кбит/сек, 10bit
Звук:
Аудио1: Русская, AC3 448 Кбит/сек, 6 канала(ов),16bit 48,0 КГц
Аудио2: English, AC3 448 Кбит/сек, 6 канала(ов),16bit 48,0 КГц
Субтитры: Русские, English

Mediainfo

General
Unique ID : 251899117083102331367640423627762629445 (0xBD8201586CBF6CA1AC647793E5CAFB45)
Format : Matroska
Format version : Version 4 / Version 2
File size : 5.90 GiB
Duration : 2 h 7 min
Overall bit rate : 6 629 kb/s
Encoded date : UTC 2017-09-29 17:36:22
Writing application : mkvmerge v13.0.0 ('The Juggler') 64bit
Writing library : libebml v1.3.4 + libmatroska v1.4.5
Cover : Yes
Attachments : cover5.jpg
Video
ID : 1
Format : HEVC
Format/Info : High Efficiency Video Coding
Format profile : Main 10@L4.1@High
Codec ID : V_MPEGH/ISO/HEVC
Duration : 2 h 7 min
Bit rate : 5 731 kb/s
Width : 1 920 pixels
Height : 816 pixels
Display aspect ratio : 2.35:1
Frame rate mode : Constant
Frame rate : 23.976 (24000/1001) FPS
Color space : YUV
Chroma subsampling : 4:2:0
Bit depth : 10 bits
Bits/(Pixel*Frame) : 0.153
Stream size : 5.10 GiB (86%)
Writing library : x265 2.5+17-f8ae7afc1f61:[Windows][GCC 7.1.0][64 bit] 10bit
Encoding settings : cpuid=1050111 / frame-threads=5 / numa-pools=4 / wpp / no-pmode / no-pme / no-psnr / no-ssim / log-level=3 / input-csp=1 / input-res=1920x816 / interlace=0 / total-frames=0 / level-idc=41 / high-tier=1 / uhd-bd=0 / ref=4 / no-allow-non-conformance / no-repeat-headers / annexb / no-aud / no-hrd / info / hash=0 / no-temporal-layers / open-gop / min-keyint=23 / keyint=250 / bframes=10 / b-adapt=2 / b-pyramid / bframe-bias=0 / rc-lookahead=40 / lookahead-slices=5 / scenecut=40 / no-intra-refresh / ctu=64 / min-cu-size=8 / no-rect / no-amp / max-tu-size=32 / tu-inter-depth=2 / tu-intra-depth=2 / limit-tu=0 / rdoq-level=0 / dynamic-rd=0.00 / no-ssim-rd / signhide / no-tskip / nr-intra=0 / nr-inter=0 / no-constrained-intra / strong-intra-smoothing / max-merge=3 / limit-refs=3 / no-limit-modes / me=3 / subme=7 / merange=32 / temporal-mvp / weightp / weightb / no-analyze-src-pics / deblock=-3:-3 / no-sao / no-sao-non-deblock / rd=3 / no-early-skip / rskip / no-fast-intra / no-tskip-fast / no-cu-lossless / no-b-intra / no-splitrd-skip / rdpenalty=0 / psy-rd=2.00 / psy-rdoq=0.00 / no-rd-refine / analysis-reuse-mode=0 / no-lossless / cbqpoffs=0 / crqpoffs=0 / rc=crf / crf=18.5 / qcomp=0.60 / qpstep=4 / stats-write=0 / stats-read=0 / vbv-maxrate=50000 / vbv-bufsize=35714 / vbv-init=0.9 / crf-max=30.0 / crf-min=0.0 / ipratio=1.40 / pbratio=1.30 / aq-mode=2 / aq-strength=0.90 / cutree / zone-count=0 / no-strict-cbr / qg-size=32 / no-rc-grain / qpmax=69 / qpmin=0 / no-const-vbv / sar=1 / overscan=0 / videoformat=5 / range=0 / colorprim=2 / transfer=2 / colormatrix=2 / chromaloc=0 / display-window=0 / max-cll=0,0 / min-luma=0 / max-luma=1023 / log2-max-poc-lsb=8 / vui-timing-info / vui-hrd-info / slices=1 / opt-qp-pps / opt-ref-list-length-pps / no-multi-pass-opt-rps / scenecut-bias=0.05 / no-opt-cu-delta-qp / no-aq-motion / no-hdr / no-hdr-opt / no-dhdr10-opt / analysis-reuse-level=5 / scale-factor=0 / refine-intra=0 / refine-inter=0 / refine-mv=0 / no-limit-sao / ctu-info=0
Default : Yes
Forced : No
Audio #1
ID : 2
Format : AC-3
Format/Info : Audio Coding 3
Format settings, Endianness : Big
Codec ID : A_AC3
Duration : 2 h 7 min
Bit rate mode : Constant
Bit rate : 448 kb/s
Channel(s) : 6 channels
Channel positions : Front: L C R, Side: L R, LFE
Sampling rate : 48.0 kHz
Frame rate : 31.250 FPS (1536 SPF)
Bit depth : 16 bits
Compression mode : Lossy
Stream size : 408 MiB (7%)
Language : Russian
Service kind : Complete Main
Default : Yes
Forced : No
Audio #2
ID : 3
Format : AC-3
Format/Info : Audio Coding 3
Format settings, Endianness : Big
Codec ID : A_AC3
Duration : 2 h 7 min
Bit rate mode : Constant
Bit rate : 448 kb/s
Channel(s) : 6 channels
Channel positions : Front: L C R, Side: L R, LFE
Sampling rate : 48.0 kHz
Frame rate : 31.250 FPS (1536 SPF)
Bit depth : 16 bits
Compression mode : Lossy
Stream size : 408 MiB (7%)
Language : English
Service kind : Complete Main
Default : No
Forced : No
Text #1
ID : 4
Format : UTF-8
Codec ID : S_TEXT/UTF8
Codec ID/Info : UTF-8 Plain Text
Duration : 2 h 0 min
Bit rate : 78 b/s
Count of elements : 1167
Stream size : 69.1 KiB (0%)
Language : Russian
Default : Yes
Forced : No
Text #2
ID : 5
Format : UTF-8
Codec ID : S_TEXT/UTF8
Codec ID/Info : UTF-8 Plain Text
Duration : 2 h 3 min
Bit rate : 42 b/s
Count of elements : 1134
Stream size : 38.9 KiB (0%)
Language : English
Default : No
Forced : No
Menu
00:00:00.000 : en:Начало
00:00:21.104 : en:Империя наносит ответный удар
00:01:54.864 : en:Ледяная планета Хот
00:04:15.838 : en:База повстанцев
00:08:19.248 : en:Побег от вампы
00:10:15.948 : en:Двери закрыты
00:12:57.735 : en:Наставления Оби-Вана
00:15:13.537 : en:Поисковая операция
00:16:29.697 : en:Излечение Люка
00:18:19.973 : en:Имперский дроид-разведчик
00:19:45.392 : en:Имперский флот
00:21:22.698 : en:Подготовка к битве
00:23:57.727 : en:Отлет первого транспорта
00:25:49.422 : en:Битва в снегах
00:29:29.350 : en:Ход битвы меняется
00:31:29.220 : en:Повстанцы отступают
00:33:37.682 : en:Побег на "Соколе"
00:35:55.152 : en:Отлет на Дагоба
00:36:51.250 : en:Имперское преследование
00:38:33.561 : en:Астероидное поле
00:40:36.725 : en:Аварийная посадка на Дагоба
00:44:20.074 : en:Охота на "Сокола"
00:46:08.390 : en:"Ты нашел уже кое-кого"
00:50:13.385 : en:Прерванный поцелуй
00:52:16.633 : en:Послание Императора
00:54:20.256 : en:Хижина Йоды
00:57:40.290 : en:"Это не пещера"
01:00:57.945 : en:Обучение джедая
01:03:42.777 : en:Поражение в пещере
01:05:46.108 : en:Наемники
01:08:12.171 : en:Никаких попыток
01:13:24.233 : en:Вместе с мусором
01:16:39.886 : en:Видение будущего
01:18:24.116 : en:Город в облаках
01:19:45.864 : en:Встреча с Лэндо
01:22:55.929 : en:Отлет с Дагоба
01:25:38.550 : en:Беспокойство Леи
01:27:51.265 : en:Имперский сюрприз
01:30:28.673 : en:Сделка нравится все меньше
01:34:39.799 : en:Заморозка в карбоните
01:38:28.902 : en:Люк попадает в ловушку
01:40:26.145 : en:Лицом к лицу с темным лордом
01:41:46.099 : en:Второй сюрприх Лэндо
01:43:51.433 : en:Дуэль на световых мечах
01:47:02.541 : en:Побег из облачного города
01:49:21.471 : en:Откровение Вейдера
01:53:41.689 : en:Спасение на "Соколе"
01:56:14.842 : en:Империя наступает
01:59:46.596 : en:Флот повстанцев
02:01:58.227 : en:Финальные титры

Скриншоты

[Цитировать]



Показать сообщения:    

Текущее время: 05-Июн 06:41

Часовой пояс: UTC + 6


Вы не можете начинать темы
Вы не можете отвечать на сообщения
Вы не можете редактировать свои сообщения
Вы не можете удалять свои сообщения
Вы не можете голосовать в опросах
Вы не можете прикреплять файлы к сообщениям
Вы не можете скачивать файлы

!ВНИМАНИЕ!
Сайт не предоставляет электронные версии произведений, а занимается лишь коллекционированием и каталогизацией ссылок, присылаемых и публикуемых на форуме нашими читателями. Если вы являетесь правообладателем какого-либо представленного материала и не желаете, чтобы ссылка на него находилась в нашем каталоге, свяжитесь с нами, и мы незамедлительно удалим ее. Файлы для обмена на трекере предоставлены пользователями сайта, и администрация не несет ответственности за их содержание. Просьба не заливать файлы, защищенные авторскими правами, а также файлы нелегального содержания!