***Уважаемые пользователи и гости !!! Сайт переехал на новый домен Torrents-club.info. Просьба изменить ваши закладки! ***
 
[ Сегодня идет свободное скачивание без начисления Download ]


Статистика раздачи
Скачал: [ 1 ]
 
   
 
 
 
 
Звёздные войны: Эпизод 6 – Возвращение Джедая / Star Wars: Episode VI - Return of the Jedi Информация о фильме
Название: Звёздные войны: Эпизод 6 – Возвращение Джедая
Оригинальное название: Star Wars: Episode VI - Return of the Jedi
Год выхода: 1983
Жанр: фантастика, приключения
Режиссер: Ричард Маркуэнд
В ролях: Марк Хэмилл, Харрисон Форд, Кэрри Фишер, Билли Ди Уильямс, Энтони Дэниелс, Питер Мейхью, Себастьян Шоу, Иэн МакДайармид, Фрэнк Оз, Джеймс Эрл Джонс
О фильме:
В шестом эпизоде «Звездных войн» Дарт Вейдер создает вторую «Звезду Смерти». Он объединяет все силы зла, чтобы с помощью этого смертоносного оружия нанести последний сокрушительный удар по повстанцам и их союзникам.
Люк Скайуокер вместе с принцессой Лейей и верными дроидами R2D2 и C-3PO отправляется спасать своего друга Хана Соло, который попал в плен к отвратительному Джаббе Хатту — могущественному повелителю преступников.
Повстанцы высаживаются на планету Эндор, чтобы оттуда вместе с Люком и его отрядом предпринять последнюю атаку на Имперский флот, атаку, от которой зависит судьба Галактики. В этом эпизоде Люк Скайуокер и Дарт Вейдер встречаются в последний раз… ибо из поединка живым выйдет только один…

Страна: США
Продолжительность: 02:14:47
Перевод: Дубляж (CPIG)
Файл
Кодек: HEVC x265 10bit
Качество: BDRip-HEVC 1080p
Видео: 1920x816, 23.976 кадр/сек, 6163 Кбит/сек, 10bit
Звук:
Аудио1: Русская, AC3 448 Кбит/сек, 6 канала(ов),16bit 48,0 КГц
Аудио2: English, AC3 384 Кбит/сек, 6 канала(ов),16bit 48,0 КГц
Субтитры: Русские форсированные, полные, English

Mediainfo

General
Unique ID : 240391571492577868970384955403828736623 (0xB4D9BB8B1F4781C7B97547EE0BFC326F)
Format : Matroska
Format version : Version 4 / Version 2
File size : 6.59 GiB
Duration : 2 h 14 min
Overall bit rate : 6 998 kb/s
Encoded date : UTC 2017-09-29 17:54:54
Writing application : mkvmerge v13.0.0 ('The Juggler') 64bit
Writing library : libebml v1.3.4 + libmatroska v1.4.5
Cover : Yes
Attachments : cover6.jpg
Video
ID : 1
Format : HEVC
Format/Info : High Efficiency Video Coding
Format profile : Main 10@L4.1@High
Codec ID : V_MPEGH/ISO/HEVC
Duration : 2 h 14 min
Bit rate : 6 163 kb/s
Width : 1 920 pixels
Height : 816 pixels
Display aspect ratio : 2.35:1
Frame rate mode : Constant
Frame rate : 23.976 (24000/1001) FPS
Color space : YUV
Chroma subsampling : 4:2:0
Bit depth : 10 bits
Bits/(Pixel*Frame) : 0.164
Stream size : 5.80 GiB (88%)
Writing library : x265 2.5+17-f8ae7afc1f61:[Windows][GCC 7.1.0][64 bit] 10bit
Encoding settings : cpuid=1050111 / frame-threads=5 / numa-pools=4 / wpp / no-pmode / no-pme / no-psnr / no-ssim / log-level=3 / input-csp=1 / input-res=1920x816 / interlace=0 / total-frames=0 / level-idc=41 / high-tier=1 / uhd-bd=0 / ref=4 / no-allow-non-conformance / no-repeat-headers / annexb / no-aud / no-hrd / info / hash=0 / no-temporal-layers / open-gop / min-keyint=23 / keyint=250 / bframes=10 / b-adapt=2 / b-pyramid / bframe-bias=0 / rc-lookahead=40 / lookahead-slices=5 / scenecut=40 / no-intra-refresh / ctu=64 / min-cu-size=8 / no-rect / no-amp / max-tu-size=32 / tu-inter-depth=2 / tu-intra-depth=2 / limit-tu=0 / rdoq-level=0 / dynamic-rd=0.00 / no-ssim-rd / signhide / no-tskip / nr-intra=0 / nr-inter=0 / no-constrained-intra / strong-intra-smoothing / max-merge=3 / limit-refs=3 / no-limit-modes / me=3 / subme=7 / merange=32 / temporal-mvp / weightp / weightb / no-analyze-src-pics / deblock=-3:-3 / no-sao / no-sao-non-deblock / rd=3 / no-early-skip / rskip / no-fast-intra / no-tskip-fast / no-cu-lossless / no-b-intra / no-splitrd-skip / rdpenalty=0 / psy-rd=2.00 / psy-rdoq=0.00 / no-rd-refine / analysis-reuse-mode=0 / no-lossless / cbqpoffs=0 / crqpoffs=0 / rc=crf / crf=19.2 / qcomp=0.60 / qpstep=4 / stats-write=0 / stats-read=0 / vbv-maxrate=50000 / vbv-bufsize=35714 / vbv-init=0.9 / crf-max=30.0 / crf-min=0.0 / ipratio=1.40 / pbratio=1.30 / aq-mode=2 / aq-strength=0.80 / cutree / zone-count=0 / no-strict-cbr / qg-size=32 / no-rc-grain / qpmax=69 / qpmin=0 / no-const-vbv / sar=1 / overscan=0 / videoformat=5 / range=0 / colorprim=2 / transfer=2 / colormatrix=2 / chromaloc=0 / display-window=0 / max-cll=0,0 / min-luma=0 / max-luma=1023 / log2-max-poc-lsb=8 / vui-timing-info / vui-hrd-info / slices=1 / opt-qp-pps / opt-ref-list-length-pps / no-multi-pass-opt-rps / scenecut-bias=0.05 / no-opt-cu-delta-qp / no-aq-motion / no-hdr / no-hdr-opt / no-dhdr10-opt / analysis-reuse-level=5 / scale-factor=0 / refine-intra=0 / refine-inter=0 / refine-mv=0 / no-limit-sao / ctu-info=0
Default : Yes
Forced : No
Audio #1
ID : 2
Format : AC-3
Format/Info : Audio Coding 3
Format settings, Endianness : Big
Codec ID : A_AC3
Duration : 2 h 14 min
Bit rate mode : Constant
Bit rate : 448 kb/s
Channel(s) : 6 channels
Channel positions : Front: L C R, Side: L R, LFE
Sampling rate : 48.0 kHz
Frame rate : 31.250 FPS (1536 SPF)
Bit depth : 16 bits
Compression mode : Lossy
Stream size : 432 MiB (6%)
Language : Russian
Service kind : Complete Main
Default : Yes
Forced : No
Audio #2
ID : 3
Format : AC-3
Format/Info : Audio Coding 3
Format settings, Endianness : Big
Codec ID : A_AC3
Duration : 2 h 14 min
Bit rate mode : Constant
Bit rate : 384 kb/s
Channel(s) : 6 channels
Channel positions : Front: L C R, Side: L R, LFE
Sampling rate : 48.0 kHz
Frame rate : 31.250 FPS (1536 SPF)
Bit depth : 16 bits
Compression mode : Lossy
Stream size : 370 MiB (5%)
Language : English
Service kind : Complete Main
Default : No
Forced : No
Text #1
ID : 4
Format : UTF-8
Codec ID : S_TEXT/UTF8
Codec ID/Info : UTF-8 Plain Text
Duration : 22 min 47 s
Bit rate : 9 b/s
Count of elements : 32
Stream size : 1.63 KiB (0%)
Title : rus forced
Language : Russian
Default : Yes
Forced : Yes
Text #2
ID : 5
Format : UTF-8
Codec ID : S_TEXT/UTF8
Codec ID/Info : UTF-8 Plain Text
Duration : 2 h 14 min
Bit rate : 56 b/s
Count of elements : 1024
Stream size : 55.4 KiB (0%)
Title : rus full
Language : Russian
Default : No
Forced : No
Text #3
ID : 6
Format : UTF-8
Codec ID : S_TEXT/UTF8
Codec ID/Info : UTF-8 Plain Text
Duration : 2 h 3 min
Bit rate : 34 b/s
Count of elements : 1007
Stream size : 31.5 KiB (0%)
Language : English
Default : No
Forced : No
Menu
00:00:00.000 : ru:Начало
00:00:21.187 : ru:Возвращение джедая
00:01:55.115 : ru:Неожиданный визит Вейдера
00:04:58.464 : ru:Прибытие во дворец Джаббы
00:08:10.907 : ru:Сообщение и подарок
00:12:21.907 : ru:Бэнд Макса Ребо
00:14:22.027 : ru:Награда за Чубакку
00:17:36.013 : ru:Освобождение из карбонита
00:22:10.037 : ru:Появление джедая
00:25:08.340 : ru:"О нет, рэнкор!"
00:29:37.358 : ru:На парусной барже
00:31:29.012 : ru:Яма сарлакка
00:37:44.470 : ru:Прибытие Императора
00:39:32.244 : ru:Смерть Йоды
00:45:17.423 : ru:Определенная точка зрения
00:48:23.400 : ru:Инструктаж повстанцев
00:51:36.009 : ru:Расставание с "Соколом"
00:53:32.667 : ru:Распоряжения Императора
00:54:25.095 : ru:Непринужденный полет
00:56:55.245 : ru:Прибытие на Эндор
00:58:43.811 : ru:Погоня на спидербайках
01:02:41.716 : ru:Лея знакомится с Уикетом
01:06:19.266 : ru:Доклад Вейдера
01:07:47.480 : ru:Ловушка эвоков
01:12:01.108 : ru:Золотое божество
01:15:52.673 : ru:Истории у огня
01:18:14.815 : ru:Брат и сестра
01:22:30.403 : ru:Люк сдается в плен
01:26:06.870 : ru:Разведка повстанцев
01:26:52.081 : ru:Флот альянса
01:27:50.890 : ru:Задняя дверь
01:30:04.524 : ru:Люк и Император
01:33:19.135 : ru:"Это ловушка!"
01:36:41.420 : ru:Нападение эвоков
01:40:25.185 : ru:Полностью действующая
01:42:23.178 : ru:В пылу сражения
01:44:27.803 : ru:Притягательность темной стороны
01:45:26.945 : ru:Эвоки меняют ход сражения
01:48:42.432 : ru:Отец против сына
01:50:40.634 : ru:Взятие бункера
01:51:37.107 : ru:Ярость джедая
01:54:37.120 : ru:Щит снят
01:55:07.859 : ru:Молнии силы
01:55:57.492 : ru:Искупление Вейдера
01:57:40.178 : ru:Внутри "Звезды смерти"
01:59:34.167 : ru:Энакин без маски
02:01:58.853 : ru:"Звезда смерти" уничтожена
02:04:50.566 : ru:Погребальный костер
02:05:27.436 : ru:Праздник
02:07:56.043 : ru:Финальные титры

Скриншоты

[Цитировать]



Показать сообщения:    

Текущее время: 07-Июн 10:57

Часовой пояс: UTC + 6


Вы не можете начинать темы
Вы не можете отвечать на сообщения
Вы не можете редактировать свои сообщения
Вы не можете удалять свои сообщения
Вы не можете голосовать в опросах
Вы не можете прикреплять файлы к сообщениям
Вы не можете скачивать файлы

!ВНИМАНИЕ!
Сайт не предоставляет электронные версии произведений, а занимается лишь коллекционированием и каталогизацией ссылок, присылаемых и публикуемых на форуме нашими читателями. Если вы являетесь правообладателем какого-либо представленного материала и не желаете, чтобы ссылка на него находилась в нашем каталоге, свяжитесь с нами, и мы незамедлительно удалим ее. Файлы для обмена на трекере предоставлены пользователями сайта, и администрация не несет ответственности за их содержание. Просьба не заливать файлы, защищенные авторскими правами, а также файлы нелегального содержания!