***Уважаемые пользователи и гости !!! Сайт переехал на новый домен Torrents-club.info. Просьба изменить ваши закладки! ***
 
[ Сегодня идет свободное скачивание без начисления Download ]


Статистика раздачи
Нет
 
   
 
 
 
 
Только ты / Only You Информация о фильме
Название: Только ты
Оригинальное название: Only You
Год выхода: 1992
Жанр: мелодрама, комедия
Режиссер: Бетти Томас / Betty Thomas
В ролях: Эндрю МакКарти, Хелен Хант, Джоэль Мюррэй, Дэниэл Робак, Келли Престон, Том МакФедден, Марк Линн
О фильме: Канун Рождества. Молодой преуспевающий служащий Клиффорд Годфри собирается отметить надвигающийся праздник наедине с возлюбленной на фешенебельном океанском курорте. Однако любимая девушка оставляет Клиффорда. Сдать билеты на самолет ему не удалось — из-за ссоры с сотрудницей турбюро. Но удалось неожиданно познакомиться с блондинкой, которую постигло то же горе, что и Годфри...

Страна: США
Студия: Dayjob Films, Highlight Communications, Live America
Продолжительность: 01:31:31
Перевод : Профессиональный (многоголосый, закадровый)
Cубтитры : Английский
Контейнер: MKV
Качество: WEBRip 1080p
Видео: MPEG-4 AVC, High@L4, 13.8 Mb/s, 1920х1080, 23.976 fps
Аудио 1 : Русский (AC-3, 5 ch, 448 kb/s, 48.0 KHz) MVO R5
Аудио 2 : Английский (AC-3, 6ch, 448 kb/s, 48.0 KHz)
Аудио 3 : Английский (E-AC-3, 2ch, 224 kb/s, 48.0 KHz)
Субтитры : English SRT

MI

Общее
Уникальный идентификатор : 231106405674044005963904978059116167829 (0xADDD79861E503B46989441C9C1704295)
Полное имя : D:ФільмиФільми 1080рOnly.You.1994.1080p.WEBRip.Eng.Rus.x264-NTb.mkv
Формат : Matroska
Версия формата : Version 4 / Version 2
Размер файла : 9,71 Гбайт
Продолжительность : 1 ч. 31 м.
Режим общего битрейта : Переменный
Общий поток : 15,2 Мбит/сек
Дата кодирования : UTC 2017-04-23 21:53:41
Программа кодирования : mkvmerge v9.4.2 ('So High') 32bit
Библиотека кодирования : libebml v1.3.4 + libmatroska v1.4.5
Видео
Идентификатор : 1
Формат : AVC
Формат/Информация : Advanced Video Codec
Профиль формата : High@L4
Параметр CABAC формата : Да
Параметр RefFrames формата : 4 кадра
Идентификатор кодека : V_MPEG4/ISO/AVC
Продолжительность : 1 ч. 31 м.
Вид битрейта : Переменный
Битрейт : 14,1 Мбит/сек
Максимальный битрейт : 15,0 Мбит/сек
Ширина : 1920 пикселей
Высота : 1080 пикселей
Соотношение сторон : 16:9
Режим частоты кадров : Постоянный
Частота кадров : 23,976 (24000/1001) кадра/сек
Цветовое пространство : YUV
Субдискретизация насыщенности : 4:2:0
Битовая глубина : 8 бит
Тип развёртки : Прогрессивная
Бит/(Пиксели*Кадры) : 0.283
Размер потока : 8,99 Гбайт (93%)
Библиотека кодирования : x264 core 148 r2623 d5b2374
Настройки программы : cabac=1 / ref=4 / deblock=1:-1:-1 / analyse=0x3:0x133 / me=umh / subme=9 / psy=1 / psy_rd=1.00:0.15 / mixed_ref=1 / me_range=24 / chroma_me=1 / trellis=2 / 8x8dct=1 / cqm=0 / deadzone=21,11 / fast_pskip=1 / chroma_qp_offset=-3 / threads=34 / lookahead_threads=5 / sliced_threads=0 / nr=150 / decimate=1 / interlaced=0 / bluray_compat=0 / constrained_intra=0 / bframes=8 / b_pyramid=2 / b_adapt=2 / b_bias=0 / direct=3 / weightb=1 / open_gop=0 / weightp=2 / keyint=120 / keyint_min=61 / scenecut=0 / intra_refresh=0 / rc_lookahead=120 / rc=crf / mbtree=1 / crf=18.0 / qcomp=0.60 / qpmin=0 / qpmax=69 / qpstep=4 / vbv_maxrate=15000 / vbv_bufsize=31250 / crf_max=0.0 / nal_hrd=vbr / filler=0 / ip_ratio=1.40 / aq=3:1.00
Default : Да
Forced : Нет
Цветовой диапазон : Limited
Основные цвета : BT.709
Характеристики трансфера : BT.709
Коэффициенты матрицы : BT.709
Аудио #1
Идентификатор : 2
Формат : E-AC-3
Формат/Информация : Enhanced Audio Coding 3
Параметр Endianness формата : Big
Идентификатор кодека : A_EAC3
Продолжительность : 1 ч. 31 м.
Вид битрейта : Постоянный
Битрейт : 224 Кбит/сек
Каналы : 2 канала
Расположение каналов : Front: L R
Частота : 48,0 КГц
Частота кадров : 187,500 кадров/сек (256 SPF)
Метод сжатия : С потерями
Размер потока : 147 Мбайт (1%)
Язык : English
ServiceKind/String : Complete Main
Default : Нет
Forced : Нет
Аудио #2
Идентификатор : 3
Формат : AC-3
Формат/Информация : Audio Coding 3
Параметр Endianness формата : Big
Идентификатор кодека : A_AC3
Продолжительность : 1 ч. 31 м.
Вид битрейта : Постоянный
Битрейт : 448 Кбит/сек
Каналы : 6 каналов
Расположение каналов : Front: L C R, Side: L R, LFE
Частота : 48,0 КГц
Частота кадров : 31,250 кадров/сек (1536 SPF)
Битовая глубина : 16 бит
Метод сжатия : С потерями
Задержка видео : 7 с. 214 мс.
Размер потока : 293 Мбайт (3%)
Заголовок : transpose from dvd
Язык : English
ServiceKind/String : Complete Main
Default : Нет
Forced : Нет
Аудио #3
Идентификатор : 4
Формат : AC-3
Формат/Информация : Audio Coding 3
Параметр Endianness формата : Big
Идентификатор кодека : A_AC3
Продолжительность : 1 ч. 31 м.
Вид битрейта : Постоянный
Битрейт : 448 Кбит/сек
Каналы : 6 каналов
Расположение каналов : Front: L C R, Side: L R, LFE
Частота : 48,0 КГц
Частота кадров : 31,250 кадров/сек (1536 SPF)
Битовая глубина : 16 бит
Метод сжатия : С потерями
Задержка видео : 7 с. 114 мс.
Размер потока : 293 Мбайт (3%)
Заголовок : MVO (videogram)
Язык : Russian
ServiceKind/String : Complete Main
Default : Да
Forced : Да
Текст
Идентификатор : 5
Формат : UTF-8
Идентификатор кодека : S_TEXT/UTF8
Идентификатор кодека/Информация : UTF-8 Plain Text
Продолжительность : 1 ч. 29 м.
Битрейт : 86 бит/сек
ElementCount : 1814
Размер потока : 56,5 Кбайт (0%)
Язык : English
Default : Нет
Forced : Нет

Скриншоты






[Цитировать]



Показать сообщения:    

Текущее время: 07-Июн 04:44

Часовой пояс: UTC + 6


Вы не можете начинать темы
Вы не можете отвечать на сообщения
Вы не можете редактировать свои сообщения
Вы не можете удалять свои сообщения
Вы не можете голосовать в опросах
Вы не можете прикреплять файлы к сообщениям
Вы не можете скачивать файлы

!ВНИМАНИЕ!
Сайт не предоставляет электронные версии произведений, а занимается лишь коллекционированием и каталогизацией ссылок, присылаемых и публикуемых на форуме нашими читателями. Если вы являетесь правообладателем какого-либо представленного материала и не желаете, чтобы ссылка на него находилась в нашем каталоге, свяжитесь с нами, и мы незамедлительно удалим ее. Файлы для обмена на трекере предоставлены пользователями сайта, и администрация не несет ответственности за их содержание. Просьба не заливать файлы, защищенные авторскими правами, а также файлы нелегального содержания!