***Уважаемые пользователи и гости !!! Сайт переехал на новый домен Torrents-club.info. Просьба изменить ваши закладки! ***
 
[ Сегодня идет свободное скачивание без начисления Download ]


Статистика раздачи
Скачал: [ 1 ]
 
   
 
 
 
 
--✧ ГРИММ / Grimm [S06, серии с 1 по 13 из 13] (2017) WEB-DL 720p | P ✧-- Информация о фильме:
✦ Название: Гримм
✦ Оригинальное название: Grimm
✦ Год выхода: 2017
✦ Жанр: ужасы, фэнтези, драма, детектив
✦ Режиссер: Марк Бакленд
✦ В ролях: Дэйв Гвинтоли, Расселл Хорнсби, Битси Таллоч, Сайлас Уэйр Митчелл, Саша Ройз, Регги Ли, Тим Бэгли, Айанна Беркшир, Кейт Бёртон, Клэр Коффи

Описание фильма:
Ник Беркхардт — сотрудник правоохранительных органов, расследующий убийства. Он является обладателем сверхъестественных способностей, передающихся в его семье из поколения в поколение. Дар Ника заключается в умении отличать людей от нечисти: только ему дано видеть настоящее лицо представителей злых сил. Узнав о своем предназначении, детектив становится на страже человечества, вступая в борьбу с «существами».

✦ Страна: США
✦ Продолжительность: ~ 00:43:00 серия
✦ Перевод: профессиональный (многоголосый, закадровый)
- LostFilm

Информация о файле:
✦ Формат: | MKV | H.264 |
✦ Качество: WEB-DL 720p
✦ Видео: ~ 4000 kbps | 1280x720 (16:9)
✦ Аудио RUS: AC3 | 48.0 KHz | 2 ch | 384 kbps
✦ Аудио ENG: AC3 | 48.0 KHz | 6 ch | 384 kbps
✦ Субтитры: английские

〤Релиз〤

Перевод: LostFilm
Видеоряд без лостфильмовской заставки и водяных знаков.

〤MediaInfo〤:

Общее
Уникальный идентификатор : 209526097394150833638150236552540379528 (0x9DA1422DB97305B28FC10545724AD988)
Полное имя : D:\Grimm (Season 06) LostFilm 720\Grimm.S06E01.WEB-DL.720p.Rus.Eng.LostFilm.mkv
Формат : Matroska
Версия формата : Version 2
Размер файла : 1,47 Гбайт
Продолжительность : 42 м. 59 с.
Общий поток : 4888 Кбит/сек
Дата кодирования : UTC 2017-01-09 21:27:01
Программа кодирования : mkvmerge v7.8.0 ('River Man') 32bit built on Apr 3 2015 12:11:22
Библиотека кодирования : libebml v1.3.1 + libmatroska v1.4.2
Видео
Идентификатор : 1
Формат : AVC
Формат/Информация : Advanced Video Codec
Профиль формата : High@L3.1
Настройки формата : 2 Ref Frames
Параметр CABAC формата : Нет
Параметр RefFrames формата : 2 кадра
Идентификатор кодека : V_MPEG4/ISO/AVC
Продолжительность : 42 м. 59 с.
Битрейт : 4023 Кбит/сек
Ширина : 1280 пикселей
Высота : 720 пикселей
Соотношение сторон : 16:9
Режим частоты кадров : Постоянный
Частота кадров : 23,976 (24000/1001) кадра/сек
Цветовое пространство : YUV
Субдискретизация насыщенности : 4:2:0
Битовая глубина : 8 бит
Тип развёртки : Прогрессивная
Бит/(Пиксели*Кадры) : 0.182
Размер потока : 1,21 Гбайт (82%)
Язык : English
Default : Да
Forced : Нет
Цветовой диапазон : Limited
Основные цвета : BT.709
Характеристики трансфера : BT.709
Коэффициенты матрицы : BT.709
Аудио #1
Идентификатор : 2
Формат : AC-3
Формат/Информация : Audio Coding 3
Параметр Endianness формата : Big
Идентификатор кодека : A_AC3
Продолжительность : 42 м. 59 с.
Вид битрейта : Постоянный
Битрейт : 384 Кбит/сек
Каналы : 2 канала
Расположение каналов : Front: L R
Частота : 48,0 КГц
Частота кадров : 31,250 кадров/сек (1536 SPF)
Битовая глубина : 16 бит
Метод сжатия : С потерями
Размер потока : 118 Мбайт (8%)
Язык : Russian
ServiceKind/String : Complete Main
Default : Да
Forced : Нет
Аудио #2
Идентификатор : 3
Формат : AC-3
Формат/Информация : Audio Coding 3
Параметр Endianness формата : Big
Идентификатор кодека : A_AC3
Продолжительность : 42 м. 59 с.
Вид битрейта : Постоянный
Битрейт : 384 Кбит/сек
Каналы : 6 каналов
Расположение каналов : Front: L C R, Side: L R, LFE
Частота : 48,0 КГц
Частота кадров : 31,250 кадров/сек (1536 SPF)
Битовая глубина : 16 бит
Метод сжатия : С потерями
Размер потока : 118 Мбайт (8%)
Язык : English
ServiceKind/String : Complete Main
Default : Нет
Forced : Нет
Текст #1
Идентификатор : 4
Формат : UTF-8
Идентификатор кодека : S_TEXT/UTF8
Идентификатор кодека/Информация : UTF-8 Plain Text
Язык : English
Default : Нет
Forced : Нет
Текст #2
Идентификатор : 5
Формат : UTF-8
Идентификатор кодека : S_TEXT/UTF8
Идентификатор кодека/Информация : UTF-8 Plain Text
Заголовок : SDH
Язык : English
Default : Нет
Forced : Нет

〤Скриншоты〤

[Цитировать]



Показать сообщения:    

Текущее время: 02-Мар 14:42

Часовой пояс: UTC + 6


Вы не можете начинать темы
Вы не можете отвечать на сообщения
Вы не можете редактировать свои сообщения
Вы не можете удалять свои сообщения
Вы не можете голосовать в опросах
Вы не можете прикреплять файлы к сообщениям
Вы не можете скачивать файлы

!ВНИМАНИЕ!
Сайт не предоставляет электронные версии произведений, а занимается лишь коллекционированием и каталогизацией ссылок, присылаемых и публикуемых на форуме нашими читателями. Если вы являетесь правообладателем какого-либо представленного материала и не желаете, чтобы ссылка на него находилась в нашем каталоге, свяжитесь с нами, и мы незамедлительно удалим ее. Файлы для обмена на трекере предоставлены пользователями сайта, и администрация не несет ответственности за их содержание. Просьба не заливать файлы, защищенные авторскими правами, а также файлы нелегального содержания!