***Уважаемые пользователи и гости !!! Сайт переехал на новый домен Torrents-club.info. Просьба изменить ваши закладки! ***
 
[ Сегодня идет свободное скачивание без начисления Download ]


Статистика раздачи
Скачал: [ 1 ]
 
   
 
 
 
Телепорт / JumperИнформация о фильме
Название: Телепорт
Оригинальное название: Jumper
Год выпуска: 2008
Жанр: Фантастика, боевик, триллер, криминал, приключения
Режиссер: Даг Лайман
В ролях: Хейден Кристенсен, Сэмюэл Л. Джексон, Джейми Белл, Рэйчел Билсон, Дайан Лэйн, Майкл Рукер, Анна-София Робб, Макс Тириот, Джесси Джеймс, Том Халс, Кристен Стюарт
О фильме: Подросток из неблагополучного района Дэвид Райс всегда считал себя обычным парнем, пока однажды он не узнал, что он может телепортироваться с места на место. Новые способности открыли перед ним весь мир. Он может побывать в Нью-Йорке и Токио, посетить античные развалины в Риме, увидеть «крышу мира» с горы Эверест, увидеть 20 рассветов и 20 закатов. И все — в один день. Теперь ему не нужны деньги — он может взять сколько хочет. Однако в один момент он обнаруживает, что стал мишенью. На него, как и на других подобных ему, объявлена охота. На протяжении тысячи лет тайное общество стремится уничтожить их. Вскоре Дэвид узнает истинную ценность его новых способностей.

Производство: США, Канада, 20th Century Fox Film Corporation, Millennium Films
Продолжительность: 01:28:20
Перевод: Дублированный, профессиональный многоголосый, авторский одноголосый
Файл
Качество: WEB-DL 1080p
Видео: MPEG-4 AVC, 1920x1080, 12100 Kbps, 23.976 fps
Аудио 1: Russian: 48 kHz, DTS, 6 ch, 768 kbps - Дубляж, Blu-ray
Аудио 2: Russian: 48 kHz, AC3, 6 ch, 448 kbps - MVO, студия "Кравец"
Аудио 3: Russian: 48 kHz, DTS, 6 ch, 1509 kbps - AVO, А. Гаврилов
Аудио 4: Russian: 48 kHz, DTS, 6 ch, 1509 kbps - AVO, Ю. Немахов
Аудио 5: Ukrainian: 48 kHz, AC3, 6 ch, 448 kbps - Дубляж, Blu-ray
Аудио 6: English: 48 kHz, DTS, 6 ch, 1509 kbps - Blu-ray
Аудио 7: English: 48 kHz, E-AC3, 6 ch, 640 kbps - Amazon
Субтитры: Русские (Forced, Full), украинские (Forced, Full), английские (Full)

Примечание

WEB-DL с амазона имеет большее наполнение кадра со всех сторон, чем ОМ версия 3D диска.
Присутствуют подписанные главы.
Исходные аудио дороги и сабы взяты с раздачи HDClub.
Дорожки 3 и 4 получены наложением чистого голоса на центр декодированного DTS-HD MA оригинала.
За голос Андрея Гаврилова большое спасибо dunhill200. Дорога собрана с правильным соотношением голос/оригинал.

Скриншоты


MediaInfo

General
Unique ID : 254086875048309375415952916456181769547 (0xBF275A2416112706A64A27B0E3D2A54B)
Complete name : Jumper.2008.Open.Matte.1080p.WEB-DL.4xRus.Ukr.Eng.TeamHD.mkv
Format : Matroska
Format version : Version 4
File size : 11.7 GiB
Duration : 1 h 28 min
Overall bit rate : 18.9 Mb/s
Movie name : Jumper.2008.Open.Matte.1080p.WEB-DL.4xRus.Ukr.Eng.TeamHD-spartanec163
Encoded date : UTC 2019-08-07 14:17:56
Writing application : mkvmerge v8.3.0 ('Over the Horizon') 64bit
Writing library : libebml v1.3.1 + libmatroska v1.4.2
Video
ID : 1
Format : AVC
Format/Info : Advanced Video Codec
Format profile : High@L4
Format settings : CABAC / 4 Ref Frames
Format settings, CABAC : Yes
Format settings, Reference frames : 4 frames
Codec ID : V_MPEG4/ISO/AVC
Duration : 1 h 28 min
Bit rate : 12.1 Mb/s
Width : 1 920 pixels
Height : 1 080 pixels
Display aspect ratio : 16:9
Frame rate mode : Constant
Frame rate : 23.976 (24000/1001) FPS
Color space : YUV
Chroma subsampling : 4:2:0
Bit depth : 8 bits
Scan type : Progressive
Bits/(Pixel*Frame) : 0.243
Stream size : 7.45 GiB (64%)
Title : WEB-DL 1080p (Amazon)
Language : English
Default : Yes
Forced : No
Color range : Limited
Color primaries : BT.709
Transfer characteristics : BT.709
Matrix coefficients : BT.709
Audio #1
ID : 2
Format : DTS
Format/Info : Digital Theater Systems
Codec ID : A_DTS
Duration : 1 h 28 min
Bit rate mode : Constant
Bit rate : 768 kb/s
Channel(s) : 6 channels
Channel layout : C L R Ls Rs LFE
Sampling rate : 48.0 kHz
Frame rate : 93.750 FPS (512 SPF)
Bit depth : 24 bits
Compression mode : Lossy
Stream size : 485 MiB (4%)
Title : DTS 5.1 768Kbps (Дубляж - BluRay)
Language : Russian
Default : Yes
Forced : No
Audio #2
ID : 3
Format : AC-3
Format/Info : Audio Coding 3
Commercial name : Dolby Digital
Codec ID : A_AC3
Duration : 1 h 28 min
Bit rate mode : Constant
Bit rate : 448 kb/s
Channel(s) : 6 channels
Channel layout : L R C LFE Ls Rs
Sampling rate : 48.0 kHz
Frame rate : 31.250 FPS (1536 SPF)
Bit depth : 16 bits
Compression mode : Lossy
Stream size : 283 MiB (2%)
Title : AC3 5.1 448Kbps (Профессиональный, многоголосый - студия "Кравец", LostFilm)
Language : Russian
Service kind : Complete Main
Default : No
Forced : No
Audio #3
ID : 4
Format : DTS
Format/Info : Digital Theater Systems
Codec ID : A_DTS
Duration : 1 h 28 min
Bit rate mode : Constant
Bit rate : 1 509 kb/s
Channel(s) : 6 channels
Channel layout : C L R Ls Rs LFE
Sampling rate : 48.0 kHz
Frame rate : 93.750 FPS (512 SPF)
Bit depth : 24 bits
Compression mode : Lossy
Stream size : 954 MiB (8%)
Title : DTS 5.1 1509Kbps (Авторский, одноголосый - А. Гаврилов)
Language : Russian
Default : No
Forced : No
Audio #4
ID : 5
Format : DTS
Format/Info : Digital Theater Systems
Codec ID : A_DTS
Duration : 1 h 28 min
Bit rate mode : Constant
Bit rate : 1 509 kb/s
Channel(s) : 6 channels
Channel layout : C L R Ls Rs LFE
Sampling rate : 48.0 kHz
Frame rate : 93.750 FPS (512 SPF)
Bit depth : 24 bits
Compression mode : Lossy
Stream size : 954 MiB (8%)
Title : DTS 5.1 1509Kbps (Авторский, одноголосый - Ю. Немахов)
Language : Russian
Default : No
Forced : No
Audio #5
ID : 6
Format : AC-3
Format/Info : Audio Coding 3
Commercial name : Dolby Digital
Codec ID : A_AC3
Duration : 1 h 28 min
Bit rate mode : Constant
Bit rate : 448 kb/s
Channel(s) : 6 channels
Channel layout : L R C LFE Ls Rs
Sampling rate : 48.0 kHz
Frame rate : 31.250 FPS (1536 SPF)
Bit depth : 16 bits
Compression mode : Lossy
Stream size : 283 MiB (2%)
Title : AC3 5.1 448Kbps (Дубляж - BluRay)
Language : Ukrainian
Service kind : Complete Main
Default : No
Forced : No
Audio #6
ID : 7
Format : DTS
Format/Info : Digital Theater Systems
Codec ID : A_DTS
Duration : 1 h 28 min
Bit rate mode : Constant
Bit rate : 1 509 kb/s
Channel(s) : 6 channels
Channel layout : C L R Ls Rs LFE
Sampling rate : 48.0 kHz
Frame rate : 93.750 FPS (512 SPF)
Bit depth : 24 bits
Compression mode : Lossy
Stream size : 953 MiB (8%)
Title : DTS 5.1 1509Kbps (Оригинал - BluRay)
Language : English
Default : No
Forced : No
Audio #7
ID : 8
Format : E-AC-3
Format/Info : Enhanced AC-3
Commercial name : Dolby Digital Plus
Codec ID : A_EAC3
Duration : 1 h 28 min
Bit rate mode : Constant
Bit rate : 640 kb/s
Channel(s) : 6 channels
Channel layout : L R C LFE Ls Rs
Sampling rate : 48.0 kHz
Frame rate : 31.250 FPS (1536 SPF)
Compression mode : Lossy
Stream size : 404 MiB (3%)
Title : E-AC3 5.1 640Kbps (Оригинал - Amazon)
Language : English
Service kind : Complete Main
Default : No
Forced : No
Text #1
ID : 9
Format : UTF-8
Codec ID : S_TEXT/UTF8
Codec ID/Info : UTF-8 Plain Text
Duration : 16 min 2 s
Bit rate : 2 b/s
Count of elements : 6
Stream size : 290 Bytes (0%)
Title : Надписи
Language : Russian
Default : Yes
Forced : No
Text #2
ID : 10
Format : UTF-8
Codec ID : S_TEXT/UTF8
Codec ID/Info : UTF-8 Plain Text
Duration : 1 h 22 min
Bit rate : 72 b/s
Count of elements : 898
Stream size : 43.9 KiB (0%)
Title : Полные
Language : Russian
Default : No
Forced : No
Text #3
ID : 11
Format : UTF-8
Codec ID : S_TEXT/UTF8
Codec ID/Info : UTF-8 Plain Text
Duration : 16 min 2 s
Bit rate : 2 b/s
Count of elements : 6
Stream size : 302 Bytes (0%)
Title : Надписи
Language : Ukrainian
Default : No
Forced : No
Text #4
ID : 12
Format : UTF-8
Codec ID : S_TEXT/UTF8
Codec ID/Info : UTF-8 Plain Text
Duration : 1 h 22 min
Bit rate : 69 b/s
Count of elements : 898
Stream size : 42.0 KiB (0%)
Title : Полные
Language : Ukrainian
Default : No
Forced : No
Text #5
ID : 13
Format : UTF-8
Codec ID : S_TEXT/UTF8
Codec ID/Info : UTF-8 Plain Text
Duration : 1 h 22 min
Bit rate : 45 b/s
Count of elements : 892
Stream size : 27.9 KiB (0%)
Title : Полные
Language : English
Default : No
Forced : No
Menu
00:00:00.000 : en:Through the Ice
00:04:20.427 : en:Way to Be Free
00:07:51.929 : en:First Heist (Main Titles)
00:12:35.087 : en:The Paladin
00:15:08.083 : en:Touring the World
00:17:46.356 : en:Consequences
00:22:49.534 : en:Homecoming
00:25:50.840 : en:Seeing a Ghost
00:28:56.608 : en:Been a Long Time
00:31:46.361 : en:Beamed In
00:32:56.431 : en:Too Good to Be True
00:36:17.465 : en:First on My List
00:39:52.013 : en:Welcome to the War
00:43:20.429 : en:A Lot of Questions
00:48:46.671 : en:Different Tack
00:51:01.056 : en:Fanatics
00:54:47.615 : en:Joining Forces
00:59:15.341 : en:Now or Never
01:02:11.099 : en:Your Friend Came By
01:07:31.669 : en:Always You
01:12:44.774 : en:Jumper vs. Jumper
01:17:03.782 : en:A Long Way
01:20:38.288 : en:Head Start
01:23:46.935 : en:End Titles

[Цитировать]



Показать сообщения:    

Текущее время: 23-Май 13:54

Часовой пояс: UTC + 6


Вы не можете начинать темы
Вы не можете отвечать на сообщения
Вы не можете редактировать свои сообщения
Вы не можете удалять свои сообщения
Вы не можете голосовать в опросах
Вы не можете прикреплять файлы к сообщениям
Вы не можете скачивать файлы

!ВНИМАНИЕ!
Сайт не предоставляет электронные версии произведений, а занимается лишь коллекционированием и каталогизацией ссылок, присылаемых и публикуемых на форуме нашими читателями. Если вы являетесь правообладателем какого-либо представленного материала и не желаете, чтобы ссылка на него находилась в нашем каталоге, свяжитесь с нами, и мы незамедлительно удалим ее. Файлы для обмена на трекере предоставлены пользователями сайта, и администрация не несет ответственности за их содержание. Просьба не заливать файлы, защищенные авторскими правами, а также файлы нелегального содержания!