***Уважаемые пользователи и гости !!! Сайт переехал на новый домен Torrents-club.info. Просьба изменить ваши закладки! ***
 
[ Сегодня идет свободное скачивание без начисления Download ]


Статистика раздачи
Скачал: [ 1 ]
 
   
 
 
 
Папа закодировался- Информация о фильме
Название: Папа закодировался
Год выхода: 2020
Жанр: комедия
Режиссёр: Павел Ходнев
В ролях: Евгений Сытый, Алла Юганова, Фёдор Семчев, Александр Новиков, Александр Булатов, Николай Шрайбер, Дмитрий Куличков, Александр Головин, Иван Макаревич, Игорь Гудеев, Дарья Мингазетдинова, Александр Ревенко, Илья Щербинин, Павел Кабанов, Сергей Аброскин, Василий Бабаев, Андрей Капустин, Олеся Репина, Юлия Полынская
О фильме:
После кодирования от алкоголизма Анатолий Снаров взглянул на свою жизнь новыми, трезвыми глазами. Оказывается, у него есть жена, дети и ответственная должность начальника ЖКХ в уездном городке Сорочинске, которыми он совершенно не занимался раньше. Достигнув просветления, Снаров решает осчастливить окружающих. Он становится примерным семьянином и активным гражданином. Его бурная деятельность быстро выходит за рамки полномочий начальника ЖКХ. В надежде спастись от деятельного реформатора, окружение Снарова бросает все силы на то, чтобы его раскодировать…

Страна: Россия
Студия: Кинокомпания «АРТЛАЙТ» при финансовой поддержке Министерства культуры РФ
Продолжительность: 01:32:29
Перевод: Не требуется
Файл
Контейнер: MKV
Качество: WEB-DL 1080p | IVI
Видео: MPEG-4 (AVC), 1920х860 (2.25:1), 24 fps, ~ 5120 kbps, 0.129 bit/pixel
Аудио: AAC, 48 kHz, 6 ch, 512 Kbps

MediaInfo

General
Unique ID : 71092453148750751346077403592771020615 (0x357BE88F1FF9114E36340C5FB5FCA747)
Complete name : Papa.zakodirovalsya.2020.1080p.IVI.WEB-DL.AAC5.1.H.264-EniaHD.mkv
Format : Matroska
Format version : Version 4
File size : 3.63 GiB
Duration : 1 h 32 min
Overall bit rate : 5 619 kb/s
Writing application : mkvmerge v59.0.0 ('Shining Star') 64-bit
Writing library : libebml v1.4.2 + libmatroska v1.6.4
Video
ID : 1
Format : AVC
Format/Info : Advanced Video Codec
Format profile : High@L4
Format settings : CABAC / 4 Ref Frames
Format settings, CABAC : Yes
Format settings, Reference frames : 4 frames
Codec ID : V_MPEG4/ISO/AVC
Duration : 1 h 32 min
Bit rate : 5 120 kb/s
Width : 1 920 pixels
Height : 860 pixels
Display aspect ratio : 2.25:1
Frame rate mode : Constant
Frame rate : 24.000 FPS
Color space : YUV
Chroma subsampling : 4:2:0
Bit depth : 8 bits
Scan type : Progressive
Bits/(Pixel*Frame) : 0.129
Stream size : 3.30 GiB (91%)
Writing library : x264 core 152 r2854 e9a5903
Encoding settings : cabac=1 / ref=3 / deblock=1:0:0 / analyse=0x3:0x113 / me=hex / subme=7 / psy=1 / psy_rd=1.00:0.00 / mixed_ref=1 / me_range=16 / chroma_me=1 / trellis=1 / 8x8dct=1 / cqm=0 / deadzone=21,11 / fast_pskip=1 / chroma_qp_offset=-2 / threads=27 / lookahead_threads=4 / sliced_threads=0 / nr=0 / decimate=1 / interlaced=0 / bluray_compat=0 / constrained_intra=0 / bframes=6 / b_pyramid=2 / b_adapt=1 / b_bias=0 / direct=1 / weightb=1 / open_gop=0 / weightp=2 / keyint=48 / keyint_min=25 / scenecut=0 / intra_refresh=0 / rc_lookahead=40 / rc=2pass / mbtree=1 / bitrate=5120 / ratetol=1.0 / qcomp=0.60 / qpmin=0 / qpmax=69 / qpstep=4 / cplxblur=20.0 / qblur=0.5 / vbv_maxrate=7680 / vbv_bufsize=20480 / nal_hrd=none / filler=0 / ip_ratio=1.40 / aq=1:1.00
Default : Yes
Forced : No
Audio
ID : 2
Format : AAC LC
Format/Info : Advanced Audio Codec Low Complexity
Codec ID : A_AAC-2
Duration : 1 h 32 min
Bit rate : 512 kb/s
Channel(s) : 6 channels
Channel layout : C L R Ls Rs LFE
Sampling rate : 48.0 kHz
Frame rate : 46.875 FPS (1024 SPF)
Compression mode : Lossy
Stream size : 339 MiB (9%)
Language : Russian
Default : Yes
Forced : No

Скриншоты


[Цитировать]



Показать сообщения:    

Текущее время: 23-Май 15:32

Часовой пояс: UTC + 6


Вы не можете начинать темы
Вы не можете отвечать на сообщения
Вы не можете редактировать свои сообщения
Вы не можете удалять свои сообщения
Вы не можете голосовать в опросах
Вы не можете прикреплять файлы к сообщениям
Вы не можете скачивать файлы

!ВНИМАНИЕ!
Сайт не предоставляет электронные версии произведений, а занимается лишь коллекционированием и каталогизацией ссылок, присылаемых и публикуемых на форуме нашими читателями. Если вы являетесь правообладателем какого-либо представленного материала и не желаете, чтобы ссылка на него находилась в нашем каталоге, свяжитесь с нами, и мы незамедлительно удалим ее. Файлы для обмена на трекере предоставлены пользователями сайта, и администрация не несет ответственности за их содержание. Просьба не заливать файлы, защищенные авторскими правами, а также файлы нелегального содержания!