***Уважаемые пользователи и гости !!! Сайт переехал на новый домен Torrents-club.info. Просьба изменить ваши закладки! ***
 
[ Сегодня идет свободное скачивание без начисления Download ]


Статистика раздачи
Нет
 
   
 
 
 
Золотая лихорадка. Берингово море: Под лёд / Bering Sea Gold: Under the Ice [06х01-09 из 09] HDTVRip 720р | P Название: Золотая лихорадка. Берингово море.Под лёд
Оригинальное название: Bering Sea Gold: Under the Ice
Год выпуска: 2017
Жанр: Документальный, природа, география, путешествия, приключения, исследование
Выпущено: США, Discovery Channel
В ролях: Эмили Ридель, Шон Помренк, Стив Помренк
О фильме: Вот уже более ста лет побережье и прибрежные воды в окрестностях Нома на Аляске привлекают золотоискателей. Их не пугают трудности, ими движет мечта разбогатеть на добыче драгоценного металла. Многие успели заработать и потерять целые состояния в поисках золота Берингова моря. В этом году с началом нового сезона открытые Шоном золотые запасы стоимостью около двух миллионов долларов вызвали неистовый ажиотаж среди старателей. Городок Блафф и его окрестности превратились в Дикий Запад в миниатюре, а вдоль берега выстроилась целая вереница палаток и шалашей. И, как всегда, на кону заработок и репутация каждого золотоискателя.

Качество: HDTVRip 720p
Видео: MPEG-4 AVC, ~ 4000 Кбит/с, 1280x720
Аудио: MP2, 2 ch, 192 Кбит/с
Продолжительность: 9 х ~ 00:44:00
Перевод: Профессиональный (многоголосый, закадровый)

MediaInfo:

Общее
Уникальный идентификатор : 47261681171537920508877859428233217645 (0x238E44C975BEA1B82D044483E101866D)
Полное имя : D:\Золотая лихорадка Берингово море.Под лёд 720p S06 HitWay\03 Золотая лихорадка Берингово море HitWay .mkv
Формат : Matroska
Версия формата : Version 2
Размер файла : 1,29 Гбайт
Продолжительность : 44 м. 4 с.
Режим общего битрейта : Постоянный
Общий поток : 4197 Кбит/сек
Программа кодирования : Lavf54.63.104
Библиотека кодирования : Lavf54.63.104
Видео
Идентификатор : 1
Формат : AVC
Формат/Информация : Advanced Video Codec
Профиль формата : High@L4.1
Настройки формата : CABAC / 3 Ref Frames
Параметр CABAC формата : Да
Параметр RefFrames формата : 3 кадра
Параметр GOP формата : M=3, N=33
Идентификатор кодека : V_MPEG4/ISO/AVC
Продолжительность : 44 м. 4 с.
Вид битрейта : Постоянный
Битрейт : 4000 Кбит/сек
Ширина : 1280 пикселей
Высота : 720 пикселей
Соотношение сторон : 16:9
Режим частоты кадров : Постоянный
Частота кадров : 50,000 кадров/сек
Стандарт вещания : PAL
Цветовое пространство : YUV
Субдискретизация насыщенности : 4:2:0
Битовая глубина : 8 бит
Тип развёртки : Прогрессивная
Бит/(Пиксели*Кадры) : 0.087
Размер потока : 1,21 Гбайт (93%)
Default : Нет
Forced : Нет
Цветовой диапазон : Limited
Основные цвета : BT.709
Характеристики трансфера : BT.709
Коэффициенты матрицы : BT.709
Аудио
Идентификатор : 2
Формат : MPEG Audio
Версия формата : Version 1
Профиль формата : Layer 2
Идентификатор кодека : A_MPEG/L2
Идентификатор кодека/Подсказка : MP2
Продолжительность : 44 м. 4 с.
Вид битрейта : Постоянный
Битрейт : 192 Кбит/сек
Каналы : 2 канала
Частота : 48,0 КГц
Метод сжатия : С потерями
Задержка видео : 24 мс.
Размер потока : 60,5 Мбайт (5%)
Язык : English
Default : Да
Forced : Нет

Название серий

01. Спецвыпуск.
02. Слепая вера.
03. Неудача - не поражение.
04. На краю ада.
05. На троих.
06. С чистого листа.
07. Темнее всего перед рассветом.
08. Что посеешь, то и пожнёшь.
09. Момент истины.

Скриншоты



[Цитировать]



Показать сообщения:    

Текущее время: 06-Июн 12:12

Часовой пояс: UTC + 6


Вы не можете начинать темы
Вы не можете отвечать на сообщения
Вы не можете редактировать свои сообщения
Вы не можете удалять свои сообщения
Вы не можете голосовать в опросах
Вы не можете прикреплять файлы к сообщениям
Вы не можете скачивать файлы

!ВНИМАНИЕ!
Сайт не предоставляет электронные версии произведений, а занимается лишь коллекционированием и каталогизацией ссылок, присылаемых и публикуемых на форуме нашими читателями. Если вы являетесь правообладателем какого-либо представленного материала и не желаете, чтобы ссылка на него находилась в нашем каталоге, свяжитесь с нами, и мы незамедлительно удалим ее. Файлы для обмена на трекере предоставлены пользователями сайта, и администрация не несет ответственности за их содержание. Просьба не заливать файлы, защищенные авторскими правами, а также файлы нелегального содержания!