***Уважаемые пользователи и гости !!! Сайт переехал на новый домен Torrents-club.info. Просьба изменить ваши закладки! ***
 
[ Сегодня идет свободное скачивание без начисления Download ]


Статистика раздачи
Нет
 
   
 
 
 
 
Короткая волна / Shortwave Информация о фильме
Название: Короткая волна
Оригинальное название: Shortwave
Год выхода: 2016
Жанр: фантастика, триллер
Режиссер: Райан Грегори Филлипс
В ролях: Кристобаль Тапия Монтт, Katie Carthen, Кайл Дэвис, Джей Эллис, Мик Игнис, Сара Малакул Лэйн, Santwon McCray, Thomas H. McDaniel, Хуанита Рингелинг, Nina Senicar
О фильме:
Некогда счастливая семейная пара Джош и Изабель Харрис сталкивается с немыслимым кошмаром, когда их маленькая дочь Аманда бесследно исчезает, лишив влюблённых смысла к дальнейшей жизни. Проходит время, надежды на возвращение Аманды нет и Харрисы перебираются в изолированный исследовательский центр, где Джош вместе с напарником Томасом планирует заниматься изучением коротковолновых радиосигналов в поисках сообщений из других миров. Все старания оправдываются, когда учёные фиксируют заветное зашифрованное послание внеземного происхождения.
Внезапно коротковолновый сигнал начинает пугающим образом отражаться на Изабель, видящей реалистичные галлюцинации и ведения, транслируемые в её сознание представителями иной цивилизации. Некто из иного мира толкает молодую девушку на ужасные поступки обещая, что они вернут ей Аманду. Опасаясь за здоровье любимой, Джон углубляется в детальный разбор коротковолнового послания, чтобы открыть мрачную правду о природе его отправителей. Изабель же опасается, что источник сигнала приближается к ним и вскоре нечто невообразимое вторгнется в их новый дом.

Страна: США
Продолжительность: 01:29:12
Перевод: Любительский двухголосый (RecentFilms)
Файл
Кодек: MPEG-4 AVC/H.264
Качество: WEBRip 720p
Видео: ~4847 Кбит/сек, 1280x484, 23.976 кадр/сек
Звук:
Аудио rus: AC-3, 2 ch, 48,0 КГц, 192 Кбит/сек
Реклама: Присутствует

MediaInfo

General
Unique ID : 220503360317584732512255836461729424783 (0xA5E36706CA5CB6CC93EEA051F779A58F)
Complete name : F:FilmsShortwave_2016_720p_RecentFilmsShortwave.2016.720p.RecentFilms.mkv
Format : Matroska
Format version : Version 4 / Version 2
File size : 3.14 GiB
Duration : 1h 29mn
Overall bit rate : 5 041 Kbps
Encoded date : UTC 2017-10-25 22:21:55
Writing application : mkvmerge v7.8.0 ('River Man') 64bit built on Mar 27 2015 16:31:37
Writing library : libebml v1.3.1 + libmatroska v1.4.2
Video
ID : 1
Format : AVC
Format/Info : Advanced Video Codec
Format profile : Main@L4.2
Format settings, CABAC : Yes
Format settings, ReFrames : 3 frames
Codec ID : V_MPEG4/ISO/AVC
Duration : 1h 29mn
Bit rate : 4 847 Kbps
Width : 1 280 pixels
Height : 484 pixels
Display aspect ratio : 2.645
Frame rate mode : Constant
Frame rate : 23.976 (24000/1001) fps
Standard : NTSC
Color space : YUV
Chroma subsampling : 4:2:0
Bit depth : 8 bits
Scan type : Progressive
Bits/(Pixel*Frame) : 0.326
Stream size : 3.02 GiB (96%)
Language : English
Default : Yes
Forced : No
Color range : Limited
Color primaries : BT.601 NTSC
Transfer characteristics : BT.601
Matrix coefficients : BT.601
Audio
ID : 2
Format : AC-3
Format/Info : Audio Coding 3
Mode extension : CM (complete main)
Format settings, Endianness : Big
Codec ID : A_AC3
Duration : 1h 29mn
Bit rate mode : Constant
Bit rate : 192 Kbps
Channel(s) : 2 channels
Channel positions : Front: L R
Sampling rate : 48.0 KHz
Frame rate : 31.250 fps (1536 spf)
Compression mode : Lossy
Stream size : 123 MiB (4%)
Default : Yes
Forced : No

Скриншоты

[Цитировать]



Показать сообщения:    

Текущее время: 22-Фев 21:07

Часовой пояс: UTC + 6


Вы не можете начинать темы
Вы не можете отвечать на сообщения
Вы не можете редактировать свои сообщения
Вы не можете удалять свои сообщения
Вы не можете голосовать в опросах
Вы не можете прикреплять файлы к сообщениям
Вы не можете скачивать файлы

!ВНИМАНИЕ!
Сайт не предоставляет электронные версии произведений, а занимается лишь коллекционированием и каталогизацией ссылок, присылаемых и публикуемых на форуме нашими читателями. Если вы являетесь правообладателем какого-либо представленного материала и не желаете, чтобы ссылка на него находилась в нашем каталоге, свяжитесь с нами, и мы незамедлительно удалим ее. Файлы для обмена на трекере предоставлены пользователями сайта, и администрация не несет ответственности за их содержание. Просьба не заливать файлы, защищенные авторскими правами, а также файлы нелегального содержания!