***Уважаемые пользователи и гости !!! Сайт переехал на новый домен Torrents-club.info. Просьба изменить ваши закладки! ***
 
[ Сегодня идет свободное скачивание без начисления Download ]


Статистика раздачи
Нет
 
   
 
 
 
Overkill - The Grinding Wheel (Bonus DVD) Производство: Ward Records
Жанр: Thrash Metal
Состав:
D.D. Verni - Bass, Vocals
Bobby "Blitz" Ellsworth - Vocals
Dave Linsk - Guitars (lead)
Derek "The Skull" Tailer - Guitars (rhythm)
Ron Lipnicki - Drums
Описание:
Бонусный DVD к альбому The Grinding Wheel. Содержит выступление группы на Thrash Domination Festival в 2015 году.
Продолжительность: 00:39:59
Качество видео: DVD5
Видео: MPEG-2, NTSC, 720x480@853x480 (16:9), ~9000 Kbps
Аудио: AC3, 2 ch, 192 Kbps, 48 KHz

Треклист

01. Armorist
02. Electric Rattlesnake
03. Bring Me the Night
04. Hello From the Gutter
05. Ironbound
06. Bitter Pill
07. Elimination
08. Fuck You (The Subhumans Cover)

MediaInfo:

General
Complete name : F:\CONCERT\Overkill - The Grinding Wheel 2015 (2017)\VIDEO_TS\VTS_01_1.VOB
Format : MPEG-PS
File size : 1 024 MiB
Duration : 15 min 17 s
Overall bit rate mode : Constant
Overall bit rate : 9 360 kb/s
Video
ID : 224 (0xE0)
Format : MPEG Video
Format version : Version 2
Format profile : Main@Main
Format settings, BVOP : Yes
Format settings, Matrix : Default
Format settings, GOP : M=3, N=12
Format settings, picture struc : Frame
Duration : 15 min 17 s
Bit rate mode : Constant
Bit rate : 9 000 kb/s
Width : 720 pixels
Height : 480 pixels
Display aspect ratio : 16:9
Frame rate : 29.970 (30000/1001) FPS
Standard : NTSC
Color space : YUV
Chroma subsampling : 4:2:0
Bit depth : 8 bits
Scan type : Interlaced
Scan order : Top Field First
Compression mode : Lossy
Bits/(Pixel*Frame) : 0.869
Time code of first frame : 00:00:00;00
Time code source : Group of pictures header
GOP, Open/Closed : Closed
Stream size : 983 MiB (96%)
Audio
ID : 189 (0xBD)-128 (0x80)
Format : AC-3
Format/Info : Audio Coding 3
Format settings, Endianness : Big
Muxing mode : DVD-Video
Duration : 15 min 17 s
Bit rate mode : Constant
Bit rate : 192 kb/s
Channel(s) : 2 channels
Channel positions : Front: L R
Sampling rate : 48.0 kHz
Frame rate : 31.250 FPS (1536 spf)
Bit depth : 16 bits
Compression mode : Lossy
Stream size : 21.0 MiB (2%)
Service kind : Complete Main

DVDInfo:

Title: Overkill - The Grinding Wheel 2015 (2017)
Size: 2.64 Gb ( 2 770 970,00 KBytes ) - DVD-5
Enabled regions: 1, 2, 3, 4, 5, 6, 7, 8
VTS_01 :
Play Length: 00:39:59
Video: NTSC 16:9 (720x480) VBR, Auto Letterboxed
Audio:
English (Dolby AC3, 2 ch)
* Menus Information *
VIDEO_TS Menu
Video:
NTSC 16:9 (720x480) VBR
Auto Letterboxed
Audio:
Not specified (Dolby AC3, 2 ch)
Japanese Language Unit :
Title Menu
VTS_01 Menu
Video:
NTSC 16:9 (720x480) VBR
Auto Letterboxed
Japanese Language Unit :
Root Menu
Chapter (PTT) Menu

Cкриншот меню:

Скриншоты

[Цитировать]



Показать сообщения:    

Текущее время: 23-Фев 10:45

Часовой пояс: UTC + 6


Вы не можете начинать темы
Вы не можете отвечать на сообщения
Вы не можете редактировать свои сообщения
Вы не можете удалять свои сообщения
Вы не можете голосовать в опросах
Вы не можете прикреплять файлы к сообщениям
Вы не можете скачивать файлы

!ВНИМАНИЕ!
Сайт не предоставляет электронные версии произведений, а занимается лишь коллекционированием и каталогизацией ссылок, присылаемых и публикуемых на форуме нашими читателями. Если вы являетесь правообладателем какого-либо представленного материала и не желаете, чтобы ссылка на него находилась в нашем каталоге, свяжитесь с нами, и мы незамедлительно удалим ее. Файлы для обмена на трекере предоставлены пользователями сайта, и администрация не несет ответственности за их содержание. Просьба не заливать файлы, защищенные авторскими правами, а также файлы нелегального содержания!