***Уважаемые пользователи и гости !!! Сайт переехал на новый домен Torrents-club.info. Просьба изменить ваши закладки! ***
 
[ Сегодня идет свободное скачивание без начисления Download ]


Статистика раздачи
Нет
 
   
 
 
 
Ирония судьбы, или С легким паром! (1975) HDTV [H.264/1080i-LQ]- Производство: СССР, Мосфильм
Жанр: мелодрама, комедия
Режиссер: Эльдар Рязанов
Актеры: Андрей Мягков, Барбара Брыльска, Юрий Яковлев, Ольга Науменко, Любовь Добржанская, Георгий Бурков, Александр Ширвиндт, Александр Белявский, Лия Ахеджакова, Валентина Талызина, Любовь Соколова
Описание:
Для многих зрителей эта картина уже не одно десятилетие является олицетворением самого прекрасного зимнего праздника, наполненного запахами свежей хвои и апельсинов, а также звуками вылетающей из бутылки шампанского пробки, откупоренной по-гусарски. Ирония судьбы стала для нас символом новогодней ночи, в которой всегда есть место волшебству. Именно волшебству, потому что найти свою судьбу по случайному, совершенно невообразимому стечению обстоятельств – что это, если не величайшее чудо? Ведь в большинстве случаев то, что мы называем случайностями, есть язык Бога… Итак, каждый год, по традиции, 31 декабря четверо вполне довольных жизнью молодых мужчин отправляются в баню…

Возраст: 0+ (для любой зрительской аудитории)
Релиз от: BLUEBIRD
Продолжительность: 2 серии по ~ 01:30:19
Качество видео: HDTV H.264/1080i
Субтитры: отсутствуют
Видео: AVC, 1920x1080 (16:9), 25.000 fps, 7 513 Kbps
Аудио: MP2, 48.0 KHz, 2 ch, 192 Kbps, CBR

Mediainfo:

Формат : MPEG-TS
Размер файла : 10,2 Гбайт
Продолжительность : 2 ч. 59 м.
Режим общего битрейта : Переменный
Общий поток : 8108 Кбит/сек
Видео
Идентификатор : 305 (0x131)
Идентификатор меню : 20105 (0x4E89)
Формат : AVC
Формат/Информация : Advanced Video Codec
Профиль формата : High@L4
Параметр CABAC формата : Да
Параметр ReFrames формата : 3 кадра
Параметр GOP формата : M=4, N=28
Идентификатор кодека : 27
Продолжительность : 2 ч. 59 м.
Битрейт : 7513 Кбит/сек
Ширина : 1920 пикселей
Высота : 1080 пикселей
Соотношение сторон : 16:9
Частота кадров : 25,000 кадров/сек
Стандарт вещания : Component
Цветовое пространство : YUV
Субдискретизация насыщенности : 4:2:0
Битовая глубина : 8 бит
Тип развёртки : Чересстрочная
Метод сохранения типа развёртки : Раздельные поля
Порядок развёртки : Нижнее поле первое
Бит/(Пиксели*Кадры) : 0.145
Размер потока : 9,44 Гбайт (93%)
Цветовой диапазон : Limited
Основные цвета : BT.709
Характеристики трансфера : BT.709
Коэффициенты матрицы : BT.709
Аудио
Идентификатор : 405 (0x195)
Идентификатор меню : 20105 (0x4E89)
Формат : MPEG Audio
Версия формата : Version 1
Профиль формата : Layer 2
Идентификатор кодека : 4
Продолжительность : 2 ч. 59 м.
Вид битрейта : Постоянный
Битрейт : 192 Кбит/сек
Каналы : 2 канала
Частота : 48,0 КГц
Метод сжатия : С потерями
Задержка видео : 8 мс.
Размер потока : 247 Мбайт (2%)
Язык : Russian
Язык, дополнительно : Clean effects
Скриншоты:

[Цитировать]



Показать сообщения:    

Текущее время: 14-Июн 14:05

Часовой пояс: UTC + 6


Вы не можете начинать темы
Вы не можете отвечать на сообщения
Вы не можете редактировать свои сообщения
Вы не можете удалять свои сообщения
Вы не можете голосовать в опросах
Вы не можете прикреплять файлы к сообщениям
Вы не можете скачивать файлы

!ВНИМАНИЕ!
Сайт не предоставляет электронные версии произведений, а занимается лишь коллекционированием и каталогизацией ссылок, присылаемых и публикуемых на форуме нашими читателями. Если вы являетесь правообладателем какого-либо представленного материала и не желаете, чтобы ссылка на него находилась в нашем каталоге, свяжитесь с нами, и мы незамедлительно удалим ее. Файлы для обмена на трекере предоставлены пользователями сайта, и администрация не несет ответственности за их содержание. Просьба не заливать файлы, защищенные авторскими правами, а также файлы нелегального содержания!