***Уважаемые пользователи и гости !!! Сайт переехал на новый домен Torrents-club.info. Просьба изменить ваши закладки! ***
 
[ Сегодня идет свободное скачивание без начисления Download ]


Статистика раздачи
Нет
 
   
 
 
 
 
Последний из племени людей-псов / Last of the Dogmen (1995) DVDRip - Производство: США / Carolco Pictures Inc., Chargeurs, Last of the Dogmen
Жанр: Приключения, Вестерн
Режиссер: Тэб Мёрфи
Актеры: Том Беренджер, Барбара Херши, Кертвуд Смит, Стив Ривис, Эндрю Миллер, Грегори Скотт Камминс, Марк Бун Джуниор, Хелен Кэлахэзен
Описание:
Опытнейший следопыт Льюис выслеживает трех беглых преступников. Но кто-то его опередил - он находит лишь следы крови да... индейскую стрелу. Предприняв собственное расследование, Льюис обращается к профессору - археологу, оказавшемуся привлекательной женщиной Лилиан. По стреле она определяет, что трех каторжников могли убить только воины Шейенских псов... но никто из этого племени не уцелел после печально известной резни 1864 года в Сэнд Крик! Убежденные в возможности существования «затерянного мира», Льюис и Лилиан отправляются на его поиски.

Рейтинг MPAA: PG (рекомендуется присутствие родителей)
Продолжительность: 01:52:51
Качество видео: DVDRip [sample]
Перевод: Многоголосый закадровый
Субтитры: отсутствуют
Видео: Xvid, 704x384, ~1684 Kbps
Аудио: AC3, 2 ch, 192 Kbps

Mediainfo:

General
Complete name : /media/win/TORRENT/UPLOAD TORRENTS/Poslednij.Iz.Psov.DVDRip.avi
Format : AVI
Format/Info : Audio Video Interleave
File size : 1.49 GiB
Duration : 1 h 52 min
Overall bit rate : 1 887 kb/s
Director : SC Kosmos
Genre : Action/Adventure
Writing application : VirtualDubMod 1.5.10.3 | www.virtualdub-fr.org || (build 2550/release)
Original source form/Name : Film
Copyright : 2013-06-03
Comment : Rip by Lesnik125
Video
ID : 0
Format : MPEG-4 Visual
Format profile : Advanced Simple@L5
Format settings : BVOP1 / Custom Matrix
Format settings, BVOP : 1
Format settings, QPel : No
Format settings, GMC : No warppoints
Format settings, Matrix : Custom
Codec ID : XVID
Codec ID/Hint : XviD
Duration : 1 h 52 min
Bit rate : 1 685 kb/s
Width : 704 pixels
Height : 384 pixels
Display aspect ratio : 1.85:1
Frame rate : 25.000 FPS
Color space : YUV
Chroma subsampling : 4:2:0
Bit depth : 8 bits
Scan type : Progressive
Compression mode : Lossy
Bits/(Pixel*Frame) : 0.249
Stream size : 1.33 GiB (89%)
Writing library : XviD 64
Audio
ID : 1
Format : AC-3
Format/Info : Audio Coding 3
Codec ID : 2000
Duration : 1 h 52 min
Bit rate mode : Constant
Bit rate : 192 kb/s
Channel(s) : 2 channels
Channel positions : Front: L R
Sampling rate : 48.0 kHz
Frame rate : 31.250 FPS (1536 SPF)
Bit depth : 16 bits
Compression mode : Lossy
Stream size : 155 MiB (10%)
Alignment : Split accross interleaves
Interleave, duration : 40 ms (1.00 video frame)
Interleave, preload duration : 500 ms
Service kind : Complete Main
Скриншоты:

[Цитировать]



Показать сообщения:    

Текущее время: 22-Фев 21:48

Часовой пояс: UTC + 6


Вы не можете начинать темы
Вы не можете отвечать на сообщения
Вы не можете редактировать свои сообщения
Вы не можете удалять свои сообщения
Вы не можете голосовать в опросах
Вы не можете прикреплять файлы к сообщениям
Вы не можете скачивать файлы

!ВНИМАНИЕ!
Сайт не предоставляет электронные версии произведений, а занимается лишь коллекционированием и каталогизацией ссылок, присылаемых и публикуемых на форуме нашими читателями. Если вы являетесь правообладателем какого-либо представленного материала и не желаете, чтобы ссылка на него находилась в нашем каталоге, свяжитесь с нами, и мы незамедлительно удалим ее. Файлы для обмена на трекере предоставлены пользователями сайта, и администрация не несет ответственности за их содержание. Просьба не заливать файлы, защищенные авторскими правами, а также файлы нелегального содержания!