***Уважаемые пользователи и гости !!! Сайт переехал на новый домен Torrents-club.info. Просьба изменить ваши закладки! ***
 
[ Сегодня идет свободное скачивание без начисления Download ]


Статистика раздачи
Нет
 
   
 
 
 
 
Полина / Polina, danser sa vie (2016) HDRip 1080р Информация о фильме
Год выхода: 2016
Наименование: Полина
Оригинальное наименование: Polina, danser sa vie
Произведено: Франция
Жанр: драма
Режиссер постановщик: Анжелен Прельжокаж
В главных ролях: Жюльет Бинош, Нильс Шнайдер, Миглен Миртчев, Анастасия Шевцова, Джереми Белингард, Вилен Бабичев, Юлия Писаренко, Ксения Кутепова, Алексей Гуськов
О фильме: Полина - девушка из скромной российской семьи, мечтающая стать известной балериной. Её родители делают всё возможное, чтобы их дочь танцевала на сцене Большого театра. Мама возит дочь на уроки танца, папа не гнушается заниматься криминалом, чтобы свести концы с концами. Волею судьбы Полина оказывается в Париже. Её родители полагают, что она уехала на гастроли, но на самом деле девушка уезжает, влюбившись во французского мальчика, а заодно желая попробовать себя в современном танце.

Файл
Качество: HDRip 1080p
Видео данные: MKV, 1920x810 (2:40:1), 23.976 fps, 8271 Кбит/с
Аудио данные: AAC, 2 ch, 125 Кбит/с
Перевод: Любительский многоголосый (GreenРай Studio)
Продолжительность: 01:48:58

Медиаинфо

General
Unique ID : 296398584064626073509513066885958652178 (0xDEFC4A754D9B767B3007F6F94B08D112)
Complete name : D:ГРИНРАЙPolina.danser.sa.vie.2016.P.BDRip.1080p.mkv
Format : Matroska
Format version : Version 4 / Version 2
File size : 6.39 GiB
Duration : 1 h 48 min
Overall bit rate : 8 399 kb/s
Encoded date : UTC 2018-03-23 22:03:07
Writing application : mkvmerge v21.0.0 ('Tardigrades Will Inherit The Earth') 64-bit
Writing library : libebml v1.3.5 + libmatroska v1.4.8
Video
ID : 1
Format : AVC
Format/Info : Advanced Video Codec
Format profile : High@L4
Format settings : CABAC / 1 Ref Frames
Format settings, CABAC : Yes
Format settings, RefFrames : 1 frame
Format settings, GOP : M=1, N=30
Codec ID : V_MPEG4/ISO/AVC
Duration : 1 h 48 min
Bit rate : 8 271 kb/s
Width : 1 920 pixels
Height : 810 pixels
Display aspect ratio : 2.40:1
Frame rate mode : Constant
Frame rate : 23.976 (24000/1001) FPS
Color space : YUV
Chroma subsampling : 4:2:0
Bit depth : 8 bits
Scan type : Progressive
Bits/(Pixel*Frame) : 0.222
Stream size : 6.30 GiB (98%)
Language : English
Default : Yes
Forced : No
Audio
ID : 2
Format : AAC
Format/Info : Advanced Audio Codec
Format profile : LC
Codec ID : A_AAC-2
Duration : 1 h 48 min
Bit rate : 125 kb/s
Channel(s) : 2 channels
Channel positions : Front: L R
Sampling rate : 48.0 kHz
Frame rate : 46.875 FPS (1024 SPF)
Compression mode : Lossy
Stream size : 97.8 MiB (1%)
Language : English
Default : Yes
Forced : No
Внимание, имеется видео и аудио реклама от спонсора показа

Скриншоты

[Цитировать]



Показать сообщения:    

Текущее время: 08-Апр 14:30

Часовой пояс: UTC + 6


Вы не можете начинать темы
Вы не можете отвечать на сообщения
Вы не можете редактировать свои сообщения
Вы не можете удалять свои сообщения
Вы не можете голосовать в опросах
Вы не можете прикреплять файлы к сообщениям
Вы не можете скачивать файлы

!ВНИМАНИЕ!
Сайт не предоставляет электронные версии произведений, а занимается лишь коллекционированием и каталогизацией ссылок, присылаемых и публикуемых на форуме нашими читателями. Если вы являетесь правообладателем какого-либо представленного материала и не желаете, чтобы ссылка на него находилась в нашем каталоге, свяжитесь с нами, и мы незамедлительно удалим ее. Файлы для обмена на трекере предоставлены пользователями сайта, и администрация не несет ответственности за их содержание. Просьба не заливать файлы, защищенные авторскими правами, а также файлы нелегального содержания!