***Уважаемые пользователи и гости !!! Сайт переехал на новый домен Torrents-club.info. Просьба изменить ваши закладки! ***
 
[ Сегодня идет свободное скачивание без начисления Download ]


Статистика раздачи
Нет
 
   
 
 
 
 
Посланные с небес / Heaven Sent (2016) WEBRip 1080p Информация о фильме
Год выхода: 2016
Наименование: Посланные с небес
Оригинальное наименование: Heaven Sent
Произведено: США
Жанр: комедия, драма, семейный
Режиссер постановщик: Майкл Лэндон мл.
В главных ролях: Кристиан Кэйн, Марли Шелтон, Райан МакПартлин, Мэллори Джеймс Махони, Эрни Хадсон, Ханна Миддлтон, Кристофер Гранди, Шона Эрп, Стивен Фуллер Остин
О фильме: Художник Билли Тейлор и бизнесвумен Мэй решают развестись после девяти лет брака. Но в их планы вмешивается восьмилетний беглец с небес, который берет на себя обязательство вернуть паре утраченную друг к другу дружбу и романтику любыми средствами.

Файл
Качество: WEBRip 1080p
Видео данные: MKV, 1920x1080 (16:9), 23.976 fps, 4000 Кбит/с
Аудио данные: AC3, 2 ch, 384 Кбит/с
Перевод: Любительский многоголосый (GreenРай Studio)
Продолжительность: 01:32:04

Медиаинфо

General
Unique ID : 197801654509231334516185185845963949790 (0x94CF3683AF9452F28EB3D5609F6C86DE)
Complete name : D:ГРИНРАЙHeaven.Sent.2016.P.WEB-DL.1080p.mkv
Format : Matroska
Format version : Version 4 / Version 2
File size : 2.77 GiB
Duration : 1 h 32 min
Overall bit rate mode : Constant
Overall bit rate : 4 306 kb/s
Encoded date : UTC 2018-04-25 09:02:31
Writing application : mkvmerge v6.5.0 ('Isn't she lovely') built on Oct 20 2013 12:50:05
Writing library : libebml v1.3.0 + libmatroska v1.4.1
Video
ID : 1
Format : AVC
Format/Info : Advanced Video Codec
Format profile : Main@L4
Format settings : CABAC / 3 Ref Frames
Format settings, CABAC : Yes
Format settings, RefFrames : 3 frames
Format settings, GOP : M=1, N=15
Codec ID : V_MPEG4/ISO/AVC
Duration : 1 h 32 min
Bit rate mode : Constant
Bit rate : 4 000 kb/s
Width : 1 920 pixels
Height : 1 080 pixels
Display aspect ratio : 16:9
Frame rate mode : Constant
Frame rate : 23.976 (24000/1001) FPS
Standard : NTSC
Color space : YUV
Chroma subsampling : 4:2:0
Bit depth : 8 bits
Scan type : Progressive
Bits/(Pixel*Frame) : 0.080
Stream size : 2.47 GiB (89%)
Language : English
Default : Yes
Forced : No
Color range : Limited
Audio
ID : 2
Format : AC-3
Format/Info : Audio Coding 3
Codec ID : A_AC3
Duration : 1 h 32 min
Bit rate mode : Constant
Bit rate : 384 kb/s
Channel(s) : 2 channels
Channel positions : Front: L R
Sampling rate : 48.0 kHz
Frame rate : 31.250 FPS (1536 SPF)
Bit depth : 16 bits
Compression mode : Lossy
Stream size : 253 MiB (9%)
Service kind : Complete Main
Default : Yes
Forced : No
Внимание, имеется видео и аудио реклама от спонсора показа

Скриншоты

[Цитировать]



Показать сообщения:    

Текущее время: 21-Фев 23:44

Часовой пояс: UTC + 6


Вы не можете начинать темы
Вы не можете отвечать на сообщения
Вы не можете редактировать свои сообщения
Вы не можете удалять свои сообщения
Вы не можете голосовать в опросах
Вы не можете прикреплять файлы к сообщениям
Вы не можете скачивать файлы

!ВНИМАНИЕ!
Сайт не предоставляет электронные версии произведений, а занимается лишь коллекционированием и каталогизацией ссылок, присылаемых и публикуемых на форуме нашими читателями. Если вы являетесь правообладателем какого-либо представленного материала и не желаете, чтобы ссылка на него находилась в нашем каталоге, свяжитесь с нами, и мы незамедлительно удалим ее. Файлы для обмена на трекере предоставлены пользователями сайта, и администрация не несет ответственности за их содержание. Просьба не заливать файлы, защищенные авторскими правами, а также файлы нелегального содержания!