***Уважаемые пользователи и гости !!! Сайт переехал на новый домен Torrents-club.info. Просьба изменить ваши закладки! ***
 
[ Сегодня идет свободное скачивание без начисления Download ]


Статистика раздачи
Нет
 
   
 
 
 
 
Лихорадка / Cabin Fever (2016) BDRip 720p Информация о фильме
Название: Лихорадка
Оригинальное название: Cabin Fever
Год выхода: 2016
Жанр: ужасы
Режиссер: Трэвис Заривны
В ролях: Гейдж Голайтли, Мэттью Даддарио, Надин Крокер, Дастин Ингрэм, Сэмюэл Дэвис, Рэнди Шульман, Луиз Линтон, Элай Рот, Тереза Дечер, Лаура Кенни
О фильме: История о группе из пяти выпускников, которые арендуют удаленный домик в лесу и в результате становятся жертвами ужасного вируса…

Страна: США
Продолжительность: 01:38:26
Перевод: Любительский (одноголосый закадровый) Хихикающий доктор
Cубтитры: английские
Оригинальная аудиодорожка: английский
Файл
Кодек: x264
Качество: BDRip 720p
Видео: 1280x534 / 2.40:1 / 23.976 fps / 4500 Kbps / High@L4.1
Аудио 1: AC3 / 48.0 KHz / 2ch. / 192 kbps / Rus / Хихикающий доктор
Аудио 2: DTS-HD MA / 48.0 KHz / 6 ch / 2419 kbps / 24bit (DTS Core 48.0 KHz / 6 ch / 1509 kbps / 24bit) Eng

MediaInfo

Общее
Уникальный идентификатор : 224047033455629605860374021814338159784 (0xA88DE399FB7461D783253B2666EF84A8)
Полное имя : D:_TorrentHD1Cabin.Fever.2016.BDRip.720p_by_vedigo.mkv
Формат : Matroska
Версия формата : Version 4 / Version 2
Размер файла : 4,26 Гбайт
Продолжительность : 1 ч. 38 м.
Общий поток : 6201 Кбит/сек
Название фильма : Cabin.Fever.2016.BDRip.720p_by_vedigo
Дата кодирования : UTC 2016-12-10 06:57:12
Программа кодирования : mkvmerge v9.6.0 ('Slave To Your Mind') 64bit
Библиотека кодирования : libebml v1.3.4 + libmatroska v1.4.5
Видео
Идентификатор : 1
Формат : AVC
Формат/Информация : Advanced Video Codec
Профиль формата : High@L4.1
Параметр CABAC формата : Да
Параметр ReFrames формата : 12 кадров
Идентификатор кодека : V_MPEG4/ISO/AVC
Продолжительность : 1 ч. 38 м.
Битрейт : 4500 Кбит/сек
Ширина : 1280 пикселей
Высота : 534 пикселя
Соотношение сторон : 2,40:1
Режим частоты кадров : Постоянный
Частота кадров : 23,976 (24000/1001) кадра/сек
Цветовое пространство : YUV
Субдискретизация насыщенности : 4:2:0
Битовая глубина : 8 бит
Тип развёртки : Прогрессивная
Бит/(Пиксели*Кадры) : 0.275
Размер потока : 3,09 Гбайт (73%)
Заголовок : Cabin.Fever.2016.BDRip.720p_by_vedigo
Библиотека кодирования : x264 core 148 r2721 72d53ab
Настройки программы : cabac=1 / ref=12 / deblock=1:-3:-3 / analyse=0x3:0x133 / me=umh / subme=11 / psy=1 / psy_rd=1.00:0.10 / mixed_ref=1 / me_range=48 / chroma_me=1 / trellis=2 / 8x8dct=1 / cqm=0 / deadzone=21,11 / fast_pskip=0 / chroma_qp_offset=-3 / threads=12 / lookahead_threads=3 / sliced_threads=0 / nr=0 / decimate=1 / interlaced=0 / bluray_compat=0 / constrained_intra=0 / bframes=11 / b_pyramid=2 / b_adapt=2 / b_bias=0 / direct=3 / weightb=1 / open_gop=0 / weightp=2 / keyint=250 / keyint_min=23 / scenecut=40 / intra_refresh=0 / rc_lookahead=40 / rc=2pass / mbtree=0 / bitrate=4500 / ratetol=1.0 / qcomp=0.60 / qpmin=0 / qpmax=69 / qpstep=4 / cplxblur=20.0 / qblur=0.5 / vbv_maxrate=50000 / vbv_bufsize=62500 / nal_hrd=none / filler=0 / ip_ratio=1.40 / pb_ratio=1.30 / aq=1:0.80
Default : Да
Forced : Нет
Аудио #1
Идентификатор : 2
Формат : AC-3
Формат/Информация : Audio Coding 3
Расширение режима : CM (complete main)
Параметр Endianness формата : Big
Идентификатор кодека : A_AC3
Продолжительность : 1 ч. 38 м.
Вид битрейта : Постоянный
Битрейт : 192 Кбит/сек
Каналы : 2 канала
Расположение каналов : Front: L R
Частота : 48,0 КГц
Частота кадров : 31,250 кадров/сек (1536 spf)
Метод сжатия : С потерями
Размер потока : 135 Мбайт (3%)
Заголовок : VO @ Хихикающий доктор
Язык : Russian
Default : Да
Forced : Нет
Аудио #2
Идентификатор : 3
Формат : DTS
Формат/Информация : Digital Theater Systems
Режим : 16
Параметр Endianness формата : Big
Идентификатор кодека : A_DTS
Продолжительность : 1 ч. 38 м.
Вид битрейта : Постоянный
Битрейт : 1509 Кбит/сек
Каналы : 6 каналов
Расположение каналов : Front: L C R, Side: L R, LFE
Частота : 48,0 КГц
Частота кадров : 93,750 кадра/сек (512 spf)
Битовая глубина : 24 бит
Метод сжатия : С потерями
Размер потока : 1,04 Гбайт (24%)
Заголовок : Original
Язык : English
Default : Нет
Forced : Нет
Текст
Идентификатор : 4
Формат : UTF-8
Идентификатор кодека : S_TEXT/UTF8
Идентификатор кодека/Информация : UTF-8 Plain Text
Продолжительность : 1 ч. 34 м.
Битрейт : 52 бит/сек
Count of elements : 1465
Размер потока : 36,6 Кбайт (0%)
Заголовок : Subtitle eng
Язык : English
Default : Нет
Forced : Нет
Меню
00:00:00.000 : en:00:00:00.000
00:08:57.162 : en:00:08:57.162
00:17:30.174 : en:00:17:30.174
00:27:39.950 : en:00:27:39.950
00:35:34.799 : en:00:35:34.799
00:44:08.312 : en:00:44:08.312
00:50:33.948 : en:00:50:33.948
00:58:38.598 : en:00:58:38.598
01:06:51.716 : en:01:06:51.716
01:15:06.544 : en:01:15:06.544
01:24:03.163 : en:01:24:03.163
01:31:07.754 : en:01:31:07.754

[Цитировать]



Показать сообщения:    

Текущее время: 22-Фев 00:33

Часовой пояс: UTC + 6


Вы не можете начинать темы
Вы не можете отвечать на сообщения
Вы не можете редактировать свои сообщения
Вы не можете удалять свои сообщения
Вы не можете голосовать в опросах
Вы не можете прикреплять файлы к сообщениям
Вы не можете скачивать файлы

!ВНИМАНИЕ!
Сайт не предоставляет электронные версии произведений, а занимается лишь коллекционированием и каталогизацией ссылок, присылаемых и публикуемых на форуме нашими читателями. Если вы являетесь правообладателем какого-либо представленного материала и не желаете, чтобы ссылка на него находилась в нашем каталоге, свяжитесь с нами, и мы незамедлительно удалим ее. Файлы для обмена на трекере предоставлены пользователями сайта, и администрация не несет ответственности за их содержание. Просьба не заливать файлы, защищенные авторскими правами, а также файлы нелегального содержания!