***Уважаемые пользователи и гости !!! Сайт переехал на новый домен Torrents-club.info. Просьба изменить ваши закладки! ***
 
[ Сегодня идет свободное скачивание без начисления Download ]


Статистика раздачи
Нет
 
   
 
 
 
 
Похищение / Secuestro (2016) BDRip 1080p Информация о фильме
Название: Похищение
Оригинальное название: Secuestro / Boy missing
Год выхода: 2016
Жанр: триллер
Режиссер: Мар Таргарона
В ролях: Бланка Портильо, Антонио Дечент, Висенте Ромеро, Марк Доменеч, Наусикая Боннин, Андрес Эррера, Хосе Коронадо, Макарена Гомес, Пако Мансанедо, Сержи Субира
О фильме:
Младшеклассника Виктора находят на лесной дороге и доставляют в полицию. Мальчик дезориентирован и не говорит. Его мать — известный престижный адвокат Патрисия де Лукас, и она сразу же сообщает о случившемся репортёрам. Придя в себя, Виктор рассказывает, что возле школы на него напал мужчина, и составляет фоторобот подозреваемого. Оказывается, что тот уже сидел в тюрьме, его задерживают, но отпускают за недостаточностью улик. Тогда Патрисия берет правосудие в свои руки.

Страна: Испания
Студия: Lanube Peliculas, Rodar y Rodar Cine y Televisión
Продолжительность: 01:45:24
Перевод: Любительский (одноголосый, закадровый) [BadBajo]
Файл
Кодек: h264
Качество: BDRip 1080p
Видео: 1920x808 (2.40:1), 9292 kbps, 24 fps
Аудио #1: AC3, 6 ch, 384 kbps | Русский
Аудио #2: DTS, 6 ch, 1510 kbps | Испанский
Субтитры: английские (форсированные)

MediaInfo

General
Unique ID : 185668361421288432088365240339803293778 (0x8BAE6CFA96524C1BAE42134B87FE4852)
Complete name : G:Boy.Missing.2016.1080p.BDRip.x264.rus_BadBajo.mkv
Format : Matroska
Format version : Version 4 / Version 2
File size : 8.23 GiB
Duration : 1h 45mn
Overall bit rate : 11.2 Mbps
Encoded date : UTC 2018-05-24 15:20:35
Writing application : mkvmerge v6.8.0 ('Theme for Great Cities') 32bit built on Mar 2 2014 21:27:07
Writing library : libebml v1.3.0 + libmatroska v1.4.1
Attachment : Yes
Video
ID : 1
Format : AVC
Format/Info : Advanced Video Codec
Format profile : High@L4.1
Format settings, CABAC : Yes
Format settings, ReFrames : 5 frames
Codec ID : V_MPEG4/ISO/AVC
Duration : 1h 45mn
Bit rate : 9 292 Kbps
Width : 1 920 pixels
Height : 808 pixels
Display aspect ratio : 2.40:1
Frame rate mode : Constant
Frame rate : 24.000 fps
Color space : YUV
Chroma subsampling : 4:2:0
Bit depth : 8 bits
Scan type : Progressive
Bits/(Pixel*Frame) : 0.250
Stream size : 6.67 GiB (81%)
Writing library : x264 core 148 r2705 3f5ed56
Encoding settings : cabac=1 / ref=5 / deblock=1:0:0 / analyse=0x3:0x133 / me=umh / subme=9 / psy=1 / psy_rd=1.00:0.00 / mixed_ref=1 / me_range=16 / chroma_me=1 / trellis=1 / 8x8dct=1 / cqm=0 / deadzone=21,11 / fast_pskip=0 / chroma_qp_offset=-2 / threads=12 / lookahead_threads=1 / sliced_threads=0 / nr=0 / decimate=1 / interlaced=0 / bluray_compat=0 / constrained_intra=0 / bframes=3 / b_pyramid=2 / b_adapt=2 / b_bias=0 / direct=3 / weightb=1 / open_gop=0 / weightp=2 / keyint=250 / keyint_min=24 / scenecut=40 / intra_refresh=0 / rc_lookahead=50 / rc=2pass / mbtree=1 / bitrate=9292 / ratetol=1.0 / qcomp=0.60 / qpmin=0 / qpmax=69 / qpstep=4 / cplxblur=20.0 / qblur=0.5 / ip_ratio=1.40 / aq=1:1.00
Language : Spanish
Default : Yes
Forced : No
Audio #1
ID : 2
Format : AC-3
Format/Info : Audio Coding 3
Mode extension : CM (complete main)
Format settings, Endianness : Big
Codec ID : A_AC3
Duration : 1h 45mn
Bit rate mode : Constant
Bit rate : 384 Kbps
Channel(s) : 6 channels
Channel positions : Front: L C R, Side: L R, LFE
Sampling rate : 48.0 KHz
Bit depth : 16 bits
Compression mode : Lossy
Stream size : 290 MiB (3%)
Title : Secuestro_rus_BadBajo
Language : Russian
Default : Yes
Forced : No
Audio #2
ID : 3
Format : DTS
Format/Info : Digital Theater Systems
Codec ID : A_DTS
Duration : 1h 45mn
Bit rate mode : Constant
Bit rate : 1 510 Kbps
Channel(s) : 6 channels
Channel positions : Front: L C R, Side: L R, LFE
Sampling rate : 48.0 KHz
Bit depth : 24 bits
Compression mode : Lossy
Stream size : 1.11 GiB (14%)
Language : Spanish
Default : No
Forced : No
Text
ID : 4
Format : UTF-8
Codec ID : S_TEXT/UTF8
Codec ID/Info : UTF-8 Plain Text
Title : forced
Language : English
Default : No
Forced : No
Menu
00:00:00.000 : en:00:00:00.000
00:08:34.792 : en:00:08:34.792
00:16:23.250 : en:00:16:23.250
00:25:15.625 : en:00:25:15.625
00:35:10.875 : en:00:35:10.875
00:42:54.708 : en:00:42:54.708
00:52:23.083 : en:00:52:23.083
01:00:08.167 : en:01:00:08.167
01:08:18.958 : en:01:08:18.958
01:17:10.708 : en:01:17:10.708
01:27:09.792 : en:01:27:09.792
01:36:14.625 : en:01:36:14.625

Скриншоты

[Цитировать]



Показать сообщения:    

Текущее время: 22-Фев 00:09

Часовой пояс: UTC + 6


Вы не можете начинать темы
Вы не можете отвечать на сообщения
Вы не можете редактировать свои сообщения
Вы не можете удалять свои сообщения
Вы не можете голосовать в опросах
Вы не можете прикреплять файлы к сообщениям
Вы не можете скачивать файлы

!ВНИМАНИЕ!
Сайт не предоставляет электронные версии произведений, а занимается лишь коллекционированием и каталогизацией ссылок, присылаемых и публикуемых на форуме нашими читателями. Если вы являетесь правообладателем какого-либо представленного материала и не желаете, чтобы ссылка на него находилась в нашем каталоге, свяжитесь с нами, и мы незамедлительно удалим ее. Файлы для обмена на трекере предоставлены пользователями сайта, и администрация не несет ответственности за их содержание. Просьба не заливать файлы, защищенные авторскими правами, а также файлы нелегального содержания!