***Уважаемые пользователи и гости !!! Сайт переехал на новый домен Torrents-club.info. Просьба изменить ваши закладки! ***
 
[ Сегодня идет свободное скачивание без начисления Download ]


Статистика раздачи
Нет
 
   
 
 
 
 
Из Неаполя с любовью
Troppo napoletano
- Информация
Производство: Италия / Buonaluna, Cattleya, Rai Cinema
Жанр: Комедия
Режиссер: Джанлука Ансанелли
Актеры: Серена Росси, Джорджиа Агата, Элеонора Альбрехт, Энцо Аттанасио, Энцо Казертано, Джузи Червицци, Джованни Эспозито, Луиджи Эспозито, Джованни Феррери, Дженнаро Гуаццо
Описание:
Знаете, что такое настоящая неаполитанская семья? Это множество любящих тетушек, чудаковатых дядюшек и даже соседей, которые уже чувствуют себя своими. И один маленький Чиро на всех. Живется ему весело, вот только чрезмерная опека мамы и родственников - штука тяжелая. Школьный психолог Томмазо решает помочь Чиро, но неожиданно выясняет, что в переживаниях мальчика виновата совсем не большая итальянская семья, а... первая любовь. Они заключают соглашение: Томмазо поможет Чиро влюбить в себя одноклассницу, а в ответ Чиро поможет застенчивому психологу завоевать расположение своей матери, шикарной и недоступной Деборы.


Возраст: 12+ (зрителям, достигшим 12 лет)
Дата мировой премьеры: 7 апреля 2016
Дата российской премьеры: 30 августа 2018, «ПилотКино»
Дата выхода DVD/Blu-ray релиза: 13 декабря 2018, «НД Плэй»
Продолжительность: 01:37:33
Перевод: Многоголосый закадровый, профессиональный (iTunes)
Файл
Качество видео: WEB-DL Сэмпл
Видео: AVC/H.264, 1920x804, ~4828 Kbps
Аудио #1: AC3, 6 ch, 384 Kbps | Русский, многоголосый закадровый
Аудио #2: AC3, 6 ch, 448 Kbps | Итальянский
Субтитры: Отсутствуют

Mediainfo:

Общее
Уникальный идентификатор : 297956714040576279715413484316870143926 (0xE028603279C3304C67F3DAA2C7E96FB6)
Полное имя : C:\Troppo.napoletano.2016.WEB-DL.1080p.mkv
Формат : Matroska
Версия формата : Version 4
Размер файла : 3,86 Гбайт
Продолжительность : 1 ч. 37 м.
Общий поток : 5662 Кбит/сек
Название фильма : Troppo.napoletano.2016.WEB-DL.1080p.iTunes.RUS-ylnian
Дата кодирования : UTC 2018-12-14 12:40:31
Программа кодирования : mkvmerge v28.2.0 ('The Awakening') 64-bit
Библиотека кодирования : libebml v1.3.6 + libmatroska v1.4.9
Видео
Идентификатор : 1
Формат : AVC
Формат/Информация : Advanced Video Codec
Профиль формата : High@L4
Настройки формата : CABAC / 5 Ref Frames
Параметр CABAC формата : Да
Параметр RefFrames формата : 5 кадров
Идентификатор кодека : V_MPEG4/ISO/AVC
Продолжительность : 1 ч. 37 м.
Битрейт : 4828 Кбит/сек
Ширина : 1920 пикселей
Высота : 804 пикселя
Соотношение сторон : 2,40:1
Режим частоты кадров : Постоянный
Частота кадров : 25,000 кадров/сек
Цветовое пространство : YUV
Субдискретизация насыщенности : 4:2:0
Битовая глубина : 8 бит
Тип развёртки : Прогрессивная
Бит/(Пиксели*Кадры) : 0.125
Размер потока : 3,29 Гбайт (85%)
Заголовок : Troppo.napoletano.2016.WEB-DL.1080p.iTunes.RUS-ylnian
Язык : Italian
Default : Да
Forced : Да
Цветовой диапазон : Limited
Основные цвета : BT.709
Характеристики трансфера : BT.709
Коэффициенты матрицы : BT.709
Аудио #1
Идентификатор : 2
Формат : AC-3
Формат/Информация : Audio Coding 3
Коммерческое название : Dolby Digital
Идентификатор кодека : A_AC3
Продолжительность : 1 ч. 37 м.
Вид битрейта : Постоянный
Битрейт : 384 Кбит/сек
Каналы : 6 каналов
Channel layout : L R C LFE Ls Rs
Частота : 48,0 КГц
Частота кадров : 31,250 кадров/сек (1536 SPF)
Битовая глубина : 16 бит
Метод сжатия : С потерями
Размер потока : 268 Мбайт (7%)
Заголовок : AC3
Язык : Russian
ServiceKind/String : Complete Main
Default : Да
Forced : Да
Аудио #2
Идентификатор : 3
Формат : AC-3
Формат/Информация : Audio Coding 3
Коммерческое название : Dolby Digital
Идентификатор кодека : A_AC3
Продолжительность : 1 ч. 37 м.
Вид битрейта : Постоянный
Битрейт : 448 Кбит/сек
Каналы : 6 каналов
Channel layout : L R C LFE Ls Rs
Частота : 48,0 КГц
Частота кадров : 31,250 кадров/сек (1536 SPF)
Битовая глубина : 16 бит
Метод сжатия : С потерями
Размер потока : 313 Мбайт (8%)
Язык : Italian
ServiceKind/String : Complete Main
Default : Нет
Forced : Нет
Меню
00:00:00.000 : it:1
00:08:14.680 : it:2
00:16:33.600 : it:3
00:24:37.440 : it:4
00:33:18.640 : it:5
00:41:30.520 : it:6
00:50:12.000 : it:7
00:58:18.240 : it:8
01:06:54.520 : it:9
01:15:35.160 : it:10
01:23:41.880 : it:11
01:30:53.160 : it:12

Скриншоты

Скриншоты:

[Цитировать]



Показать сообщения:    

Текущее время: 22-Фев 18:28

Часовой пояс: UTC + 6


Вы не можете начинать темы
Вы не можете отвечать на сообщения
Вы не можете редактировать свои сообщения
Вы не можете удалять свои сообщения
Вы не можете голосовать в опросах
Вы не можете прикреплять файлы к сообщениям
Вы не можете скачивать файлы

!ВНИМАНИЕ!
Сайт не предоставляет электронные версии произведений, а занимается лишь коллекционированием и каталогизацией ссылок, присылаемых и публикуемых на форуме нашими читателями. Если вы являетесь правообладателем какого-либо представленного материала и не желаете, чтобы ссылка на него находилась в нашем каталоге, свяжитесь с нами, и мы незамедлительно удалим ее. Файлы для обмена на трекере предоставлены пользователями сайта, и администрация не несет ответственности за их содержание. Просьба не заливать файлы, защищенные авторскими правами, а также файлы нелегального содержания!