***Уважаемые пользователи и гости !!! Сайт переехал на новый домен Torrents-club.info. Просьба изменить ваши закладки! ***
 
[ Сегодня идет свободное скачивание без начисления Download ]


Статистика раздачи
Нет
 
   
 
 
 
 
-Серый волк энд Красная шапочка (1990) -Год выпуска: 1990 г.
Страна: СССР
Жанр: мультипликация, пластилиновый, музыкальный, пародия, сказка
Продолжительность: 00:25:47
Режиссер: Гарри Бардин-В ролях: Армен Джигарханян, Светлана Степченко, Елизавета Разинова, Евдокия Урусова, Владимир Виноградов, Гарри Бардин-Описание:
Сказка о том, как волк не знал, что сумасбродная пародия — это жанр, в котором важно вовремя остановиться.
Классика пластилинового винегрета.-Релиз от: -Качество: DVDRip-AVC
Видео: MPEG-4 AVC, 716x572@763x572, 25 fps, 2106 Кбит/с
Аудио: AC3, 6 ch, 448 Кбит/с, AC3, 1 ch, 224 Кбит/с
Язык: Русский

Инфо файл

x264 [info]: frame I:231 Avg QP:17.81 size: 76466
x264 [info]: frame P:9332 Avg QP:19.34 size: 27799
x264 [info]: frame B:29074 Avg QP:21.93 size: 4827
x264 [info]: consecutive B-frames: 2.0% 2.7% 13.4% 32.9% 25.1% 15.3% 4.5% 1.9% 1.1% 0.6% 0.3% 0.2%
Общее
Уникальный идентификатор : 228679316183117555275734004840692030382 (0xAC0A08C5E99EAC88B2E6D78B63299BAE)
Полное имя : D:Серый волк энд Красная шапочка_1990-DVDRip-AVC_KORSAR.mkv
Формат : Matroska
Версия формата : Version 2
Размер файла : 522 Мбайт
Продолжительность : 25 м.
Общий поток : 2835 Кбит/сек
Название фильма : Серый волк энд Красная шапочка_1990-DVDRip-AVC_KORSAR
Дата кодирования : UTC 2019-02-13 16:43:22
Программа кодирования : mkvmerge v5.8.0 ('No Sleep / Pillow') built on Sep 2 2012 15:37:04
Библиотека кодирования : libebml v1.2.3 + libmatroska v1.3.0
Видео
Идентификатор : 1
Формат : AVC
Формат/Информация : Advanced Video Codec
Профиль формата : High@L4.1
Параметр CABAC формата : Да
Параметр ReFrames формата : 15 кадров
Идентификатор кодека : V_MPEG4/ISO/AVC
Продолжительность : 25 м.
Битрейт : 2106 Кбит/сек
Ширина : 716 пикселей
Высота : 572 пикселя
Соотношение сторон : 4:3
Соотношение сторон в оригинале : 4:3
Режим частоты кадров : Постоянный
Частота кадров : 25,000 кадров/сек
Цветовое пространство : YUV
Субдискретизация насыщенности : 4:2:0
Битовая глубина : 8 бит
Тип развёртки : Прогрессивная
Бит/(Пиксели*Кадры) : 0.206
Размер потока : 388 Мбайт (74%)
Библиотека кодирования : x264 core 152 r2851kMod ba24899
Настройки программы : cabac=1 / ref=15 / deblock=1:-2:-1 / analyse=0x3:0x133 / me=umh / subme=10 / psy=1 / fade_compensate=0.00 / psy_rd=1.05:0.15 / mixed_ref=1 / me_range=32 / chroma_me=1 / trellis=2 / 8x8dct=1 / cqm=0 / deadzone=21,11 / fast_pskip=1 / chroma_qp_offset=-3 / threads=12 / lookahead_threads=3 / sliced_threads=0 / nr=0 / decimate=1 / interlaced=0 / bluray_compat=0 / constrained_intra=0 / bframes=11 / b_pyramid=2 / b_adapt=2 / b_bias=0 / direct=1 / weightb=1 / open_gop=0 / weightp=2 / keyint=250 / keyint_min=25 / scenecut=40 / intra_refresh=0 / rc=crf / mbtree=0 / crf=17.5000 / qcomp=0.63 / qpmin=0 / qpmax=39 / qpstep=4 / ip_ratio=1.40 / pb_ratio=1.30 / aq=1:1.00
Язык : English
Default : Да
Forced : Нет
Основные цвета : BT.601 PAL
Характеристики трансфера : BT.470 System B, BT.470 System G
Коэффициенты матрицы : BT.601
Аудио #1
Идентификатор : 2
Формат : AC-3
Формат/Информация : Audio Coding 3
Расширение режима : CM (complete main)
Параметр Endianness формата : Big
Идентификатор кодека : A_AC3
Продолжительность : 25 м.
Вид битрейта : Постоянный
Битрейт : 448 Кбит/сек
Каналы : 6 каналов
Расположение каналов : Front: L C R, Side: L R, LFE
Частота : 48,0 КГц
Битовая глубина : 16 бит
Метод сжатия : С потерями
Размер потока : 82,5 Мбайт (16%)
Язык : Russian
Default : Да
Forced : Нет
Аудио #2
Идентификатор : 3
Формат : AC-3
Формат/Информация : Audio Coding 3
Расширение режима : CM (complete main)
Параметр Endianness формата : Big
Идентификатор кодека : A_AC3
Продолжительность : 25 м.
Вид битрейта : Постоянный
Битрейт : 224 Кбит/сек
Каналы : 1 канал
Расположение каналов : Front: C
Частота : 48,0 КГц
Битовая глубина : 16 бит
Метод сжатия : С потерями
Размер потока : 41,3 Мбайт (8%)
Язык : Russian
Default : Нет
Forced : Нет

[Цитировать]



Показать сообщения:    

Текущее время: 22-Фев 00:10

Часовой пояс: UTC + 6


Вы не можете начинать темы
Вы не можете отвечать на сообщения
Вы не можете редактировать свои сообщения
Вы не можете удалять свои сообщения
Вы не можете голосовать в опросах
Вы не можете прикреплять файлы к сообщениям
Вы не можете скачивать файлы

!ВНИМАНИЕ!
Сайт не предоставляет электронные версии произведений, а занимается лишь коллекционированием и каталогизацией ссылок, присылаемых и публикуемых на форуме нашими читателями. Если вы являетесь правообладателем какого-либо представленного материала и не желаете, чтобы ссылка на него находилась в нашем каталоге, свяжитесь с нами, и мы незамедлительно удалим ее. Файлы для обмена на трекере предоставлены пользователями сайта, и администрация не несет ответственности за их содержание. Просьба не заливать файлы, защищенные авторскими правами, а также файлы нелегального содержания!