***Уважаемые пользователи и гости !!! Сайт переехал на новый домен Torrents-club.info. Просьба изменить ваши закладки! ***
 
[ Сегодня идет свободное скачивание без начисления Download ]


Статистика раздачи
Нет
 
   
 
 
 
Чебурашка и Крокодил Гена Страна: СССР
Жанр: мультфильм
Продолжительность: 01:16:37
Год выпуска: 1967 - 1983
Режиссёр: Роман Качанов
Роли озвучивали:
Василий Ливанов, Клара Румянова, Владимир Раутбарт, Владимир Кенигсон, Тамара Дмитриева, Владимир Ферапонтов, Ирина Мазинг, Георгий Бурков, Юрий Андреев
Описание:
Знаменитая мультипликационная экранизация произведений Эдуарда Успенского.
В сборник вошли мультфильмы:
1. Крокодил Гена
2. Чебурашка
3. Шапокляк
4. Чебурашка идёт в школу
Доп. информация:

Содержание

1. Крокодил Гена
1969 г. Крокодил Гена работает в зоопарке — крокодилом. Каждый день вечером он возвращается домой в свою одинокую квартиру. Наконец ему надоедает играть самому с собой в шахматы и Гена решает завести себе друзей. На объявления расклеенные по городу откликаются звери и люди. Первой приходит девочка Галя с бездомным щенком, а вслед за ней Чебурашка…

2. Чебурашка

1971 г. У крокодила Гены день рождения. Его поздравляет Чебурашка и дарит ему подарок. Дальше друзья занимаются тем, что пытаются построить детскую площадку и помогают пионерам собирать металлолом.

3. Шапокляк

1974 г. Крокодил Гена и Чебурашка отправляются на морской отдых на поезде. Шапокляк крадёт их билеты, и друзей высаживают на первой же станции. Дальше друзья совместно борются с туристами-браконьерами и за экологическую чистоту лесов Подмосковья.

4. Чебурашка идёт в школу

1983 г. Чебурашка не встретил Крокодила Гену в аэропорту. Оказывается, Чебурашка не владеет грамотой и не смог прочитать телеграмму Гены. Выход один — нужно идти в школу, тем более что завтра как раз 1 сентября. Школа же закрыта на ремонт, который никак не могут закончить.

Знаете ли Вы, что...

•В первом мультфильме «Крокодил Гена» связанная с идеологическим отделом КГБ редколлегия «Союзмультфильма» увидела в строительстве домика друзей аналогию со строительством СЭВ, и фильм был выпущен в прокат с самой низкой – третьей категорией, в результате чего киногруппа не получила за фильм премию, а сама картина не была рекомендована для широкого проката.
•Абсурдные претензии редколлегии были и ко второму фильму «Чебурашка». Высказали мнение, что этот фильм порочит пионерскую организацию. По требованию редактуры режиссёр фильма Роман Качанов вставил в картину реплику: «В пионеры берут самых лучших».
•В последнем мультфильме «Чебурашка идёт в школу» Чебурашка не сумел прочесть телеграмму от Гены. Хотя в мультфильме «Крокодил Гена» Чебурашка нашёл Гену по объявлению, а в мультфильме «Чебурашка» даже прочитал двустишие на плакате пионеров: «Всё ненужное на слом, соберём металлолом».
•Старуха Шапокляк, названная в честь старомодного головного убора, — главный антагонист Чебурашки и Гены. Согласно книге, её основное занятие — «собирать злы», в мультфильме её девиз выражен в песенке: «Кто людям помогает — тот тратит время зря. Хорошими делами прославиться нельзя». Шапокляк при поддержке живущей в её ридикюле крысы Лариски устраивает жестокие розыгрыши над невинными жителями города. По мере знакомства с Геной и Чебурашкой Шапокляк постепенно встаёт на путь исправления, обычно возвращаясь к хулиганству в начале следующего выпуска мультфильма.
Интересно происхождение этого персонажа. В одном из интервью Э. Успенский признался, что прототипом Шапокляк стала первая жена писателя, а художник Леонид Шварцман, придумавший внешний вид мультипликационных персонажей, по собственному признанию, отчасти «срисовал» Шапокляк со своей тёщи.
•Песня Крокодила Гены была также переведена на финский язык.
•В 1990 году вышел пластилиновый мультфильм «Серый волк энд Красная Шапочка», в котором Чебурашка и Крокодил Гена являлись эпизодическими героями.
Памятники Чебурашке
•Памятник, изображающий Чебурашку, крокодила Гену и Шапокляк, установлен в 2005 году в подмосковном городе Раменское (скульптор Олег Ершов):
•Также памятник Чебурашке планировалось установить в 2007 году в Нижнем Новгороде.
•Ещё один памятник крокодилу Гене и Чебурашке, наряду со скульптурами других героев культовых советских мультфильмов, установлен в Хабаровске возле городских прудов, неподалёку от ледовой арены.
•Также памятник Чебурашке и крокодилу Гене установлен в г. Кременчуг (Полтавская обл. Украина):
Качество: BDRip, исходник Blu-ray
Формат: AVI
Видео: 720x544 (1.32:1), 25 fps, XviD MPEG-4 ~2244 kbps avg, 0.23 bit/pixel
Аудио: 48 kHz, AC3 Dolby Digital, 3/2 (L,C,R,l,r) LFE ch, ~448 kbps
Сэмпл

Подробные технические данные

ОбщееПолное имя                       : D:\Torrent\Чебурашка и крокодил Гена_1.46\Чебурашка и крокодил Гена_1.46\1. Крокодил Гена.aviФормат                           : AVIФормат/Информация                : Audio Video InterleaveРазмер файла                     : 376 МбайтПродолжительность                : 19 м.Общий поток                      : 2702 Кбит/секБиблиотека кодирования           : VirtualDub build 32839/release
ВидеоИдентификатор : 0Формат : MPEG-4 VisualПрофиль формата : Advanced Simple@L5Параметр BVOP формата : 1Параметр QPel формата : НетПараметр GMC формата : Без точки переходаПараметр матрицы формата : ВыборочнаяРежим смешивания : Сжатый битовый потокИдентификатор кодека : XVIDИдентификатор кодека/Подсказка : XviDПродолжительность : 19 м.Битрейт : 2244 Кбит/секШирина : 720 пикселейВысота : 544 пикселяСоотношение сторон : 4:3Частота кадров : 25,000 кадров/секЦветовое пространство : YUVСубдискретизация насыщенности : 4:2:0Битовая глубина : 8 битТип развёртки : ПрогрессивнаяМетод сжатия : С потерямиБит/(Пиксели*Кадры) : 0.229Размер потока : 312 Мбайт (83%)Библиотека кодирования : XviD 64
АудиоИдентификатор : 1Формат : AC-3Формат/Информация : Audio Coding 3Расширение режима : CM (complete main)Идентификатор кодека : 2000Продолжительность : 19 м.Вид битрейта : ПостоянныйБитрейт : 448 Кбит/секКаналы : 6 каналовРасположение каналов : Front: L C R, Side: L R, LFEЧастота : 48,0 КГцБитовая глубина : 16 битМетод сжатия : С потерямиРазмер потока : 62,3 Мбайт (17%)Выравнивание : Соединение по промежуткамПродолжительность промежутка : 40 мс. (1,00 видеокадр)Время предзагрузки промежутка : 512 мс.
ОбщееПолное имя : D:\Torrent\Чебурашка и крокодил Гена_1.46\Чебурашка и крокодил Гена_1.46\2. Чебурашка.aviФормат : AVIФормат/Информация : Audio Video InterleaveРазмер файла : 367 МбайтПродолжительность : 18 м.Общий поток : 2719 Кбит/секБиблиотека кодирования : VirtualDub build 32839/release
ВидеоИдентификатор : 0Формат : MPEG-4 VisualПрофиль формата : Advanced Simple@L5Параметр BVOP формата : 1Параметр QPel формата : НетПараметр GMC формата : Без точки переходаПараметр матрицы формата : ВыборочнаяРежим смешивания : Сжатый битовый потокИдентификатор кодека : XVIDИдентификатор кодека/Подсказка : XviDПродолжительность : 18 м.Битрейт : 2261 Кбит/секШирина : 720 пикселейВысота : 544 пикселяСоотношение сторон : 4:3Частота кадров : 25,000 кадров/секЦветовое пространство : YUVСубдискретизация насыщенности : 4:2:0Битовая глубина : 8 битТип развёртки : ПрогрессивнаяМетод сжатия : С потерямиБит/(Пиксели*Кадры) : 0.231Размер потока : 305 Мбайт (83%)Библиотека кодирования : XviD 64
АудиоИдентификатор : 1Формат : AC-3Формат/Информация : Audio Coding 3Расширение режима : CM (complete main)Идентификатор кодека : 2000Продолжительность : 18 м.Вид битрейта : ПостоянныйБитрейт : 448 Кбит/секКаналы : 6 каналовРасположение каналов : Front: L C R, Side: L R, LFEЧастота : 48,0 КГцБитовая глубина : 16 битМетод сжатия : С потерямиРазмер потока : 60,5 Мбайт (16%)Выравнивание : Соединение по промежуткамПродолжительность промежутка : 40 мс. (1,00 видеокадр)Время предзагрузки промежутка : 512 мс.
ОбщееПолное имя : D:\Torrent\Чебурашка и крокодил Гена_1.46\Чебурашка и крокодил Гена_1.46\3. Шапокляк.aviФормат : AVIФормат/Информация : Audio Video InterleaveРазмер файла : 365 МбайтПродолжительность : 18 м.Общий поток : 2718 Кбит/секБиблиотека кодирования : VirtualDub build 32839/release
ВидеоИдентификатор : 0Формат : MPEG-4 VisualПрофиль формата : Advanced Simple@L5Параметр BVOP формата : 1Параметр QPel формата : НетПараметр GMC формата : Без точки переходаПараметр матрицы формата : ВыборочнаяРежим смешивания : Сжатый битовый потокИдентификатор кодека : XVIDИдентификатор кодека/Подсказка : XviDПродолжительность : 18 м.Битрейт : 2261 Кбит/секШирина : 720 пикселейВысота : 544 пикселяСоотношение сторон : 4:3Частота кадров : 25,000 кадров/секЦветовое пространство : YUVСубдискретизация насыщенности : 4:2:0Битовая глубина : 8 битТип развёртки : ПрогрессивнаяМетод сжатия : С потерямиБит/(Пиксели*Кадры) : 0.231Размер потока : 303 Мбайт (83%)Библиотека кодирования : XviD 64
АудиоИдентификатор : 1Формат : AC-3Формат/Информация : Audio Coding 3Расширение режима : CM (complete main)Идентификатор кодека : 2000Продолжительность : 18 м.Вид битрейта : ПостоянныйБитрейт : 448 Кбит/секКаналы : 6 каналовРасположение каналов : Front: L C R, Side: L R, LFEЧастота : 48,0 КГцБитовая глубина : 16 битМетод сжатия : С потерямиРазмер потока : 60,1 Мбайт (16%)Выравнивание : Соединение по промежуткамПродолжительность промежутка : 40 мс. (1,00 видеокадр)Время предзагрузки промежутка : 512 мс.
ОбщееПолное имя : D:\Torrent\Чебурашка и крокодил Гена_1.46\Чебурашка и крокодил Гена_1.46\4. Чебурашка идёт в школу.aviФормат : AVIФормат/Информация : Audio Video InterleaveРазмер файла : 181 МбайтПродолжительность : 9 м. 20 с.Общий поток : 2714 Кбит/секБиблиотека кодирования : VirtualDub build 32839/release
ВидеоИдентификатор : 0Формат : MPEG-4 VisualПрофиль формата : Advanced Simple@L5Параметр BVOP формата : 1Параметр QPel формата : НетПараметр GMC формата : Без точки переходаПараметр матрицы формата : ВыборочнаяРежим смешивания : Сжатый битовый потокИдентификатор кодека : XVIDИдентификатор кодека/Подсказка : XviDПродолжительность : 9 м. 20 с.Битрейт : 2256 Кбит/секШирина : 720 пикселейВысота : 544 пикселяСоотношение сторон : 4:3Частота кадров : 25,000 кадров/секЦветовое пространство : YUVСубдискретизация насыщенности : 4:2:0Битовая глубина : 8 битТип развёртки : ПрогрессивнаяМетод сжатия : С потерямиБит/(Пиксели*Кадры) : 0.230Размер потока : 151 Мбайт (83%)Библиотека кодирования : XviD 64
АудиоИдентификатор : 1Формат : AC-3Формат/Информация : Audio Coding 3Расширение режима : CM (complete main)Идентификатор кодека : 2000Продолжительность : 9 м. 20 с.Вид битрейта : ПостоянныйБитрейт : 448 Кбит/секКаналы : 6 каналовРасположение каналов : Front: L C R, Side: L R, LFEЧастота : 48,0 КГцБитовая глубина : 16 битМетод сжатия : С потерямиРазмер потока : 29,9 Мбайт (17%)Выравнивание : Соединение по промежуткамПродолжительность промежутка : 40 мс. (1,00 видеокадр)Время предзагрузки промежутка : 512 мс.

Скриншоты

1. Крокодил Гена

2. Чебурашка

3. Шапокляк

4. Чебурашка идёт в школу

Торрент перезалит 06.11.11 в 20:00 Мск. Просьба скачать по новой торрент-файл!

[Цитировать]



Показать сообщения:    

Текущее время: 19-Сен 03:01

Часовой пояс: UTC + 6


Вы не можете начинать темы
Вы не можете отвечать на сообщения
Вы не можете редактировать свои сообщения
Вы не можете удалять свои сообщения
Вы не можете голосовать в опросах
Вы не можете прикреплять файлы к сообщениям
Вы не можете скачивать файлы

!ВНИМАНИЕ!
Сайт не предоставляет электронные версии произведений, а занимается лишь коллекционированием и каталогизацией ссылок, присылаемых и публикуемых на форуме нашими читателями. Если вы являетесь правообладателем какого-либо представленного материала и не желаете, чтобы ссылка на него находилась в нашем каталоге, свяжитесь с нами, и мы незамедлительно удалим ее. Файлы для обмена на трекере предоставлены пользователями сайта, и администрация не несет ответственности за их содержание. Просьба не заливать файлы, защищенные авторскими правами, а также файлы нелегального содержания!