***Уважаемые пользователи и гости !!! Сайт переехал на новый домен Torrents-club.info. Просьба изменить ваши закладки! ***
 
[ Сегодня идет свободное скачивание без начисления Download ]


Статистика раздачи
Нет
 
   
 
 
 
 
Дело чести Макферсона / Conspiracy
- Производство: США / Hollywood Media Bridge, Stage 6 Films
Жанр: Боевик, триллер, драма, детектив, военный
Режиссер: Адам Маркус
Актеры: Вэл Килмер, Гэри Коул, Дженнифер Эспозито, Джей Яблонски, Грег Серано, Стэйси Мари Уорден, Кристофер Герман, Боб Рамнок, Скотт Буркетт, Рене Муссе
Описание:
36-летний ветеран ВМС США - Вильям Макферсон - вынужден оставить службу в результате серьезного ранения в Ираке. Боевые операции - составляющие смысл его жизни, остались за плечами, и нынешнее положение лишает Макферсона даже надежды на выброс адреналина. Но неожиданно закадычный друг - Мигель Сильва, которому Вильям обязан жизнью, обращается с просьбой помочь ему уладить дела на ранчо в Аризоне. Когда Макферсон прибывает на ранчо, то обнаруживает, что друг бесследно исчез. Мало того, никто из местных жителей не признается, что вообще знал такого человека. Будучи в душе истинным бойцом, Макферсон разворачивает самостоятельную разведывательную операцию и выясняет, что Мигель был убит, - и это явилось частью заговора местного зарвавшегося авторитета, Джона Родоса, который держит в страхе весь город и его жителей. В своем желании восстановить справедливость Макферсон теперь не остановится ни перед чем!

Возраст: 16+ (зрителям, достигшим 16 лет)
Рейтинг MPAA: R (лицам до 17 лет обязательно присутствие взрослого)
Продолжительность: 01:30:06
Качество видео: WEB-DL
Перевод: Профессиональный многоголосый
Субтитры: Английские (Full, SDH)
Видео: AVC/H.264, 1920x1080, ~10000 Kbps
Аудио 1: AC3, 6 ch, 448 Kbps - Русский (MVO, R5)
Аудио 2: E-AC3, 6 ch, 640 Kbps - Английский

MediaInfo:

General
Unique ID : 107397604517521027124457010908559425501 (0x50CC06B84ACADAFEF3BE7D61BF79BFDD)
Complete name : Conspiracy.2008.1080p.AMZN.WEB-DL.mkv
Format : Matroska
Format version : Version 4 / Version 2
File size : 6.70 GiB
Duration : 1h 30mn
Overall bit rate : 10.6 Mbps
Movie name : Conspiracy.2008.1080p.AMZN.WEB-DL.DD+5.1.H.264-alfaHD
Encoded date : UTC 2021-08-19 06:28:03
Writing application : mkvmerge v57.0.0 ('Till The End') 64-bit
Writing library : libebml v1.4.2 + libmatroska v1.6.4
Video
ID : 1
Format : AVC
Format/Info : Advanced Video Codec
Format profile : High@L4
Format settings, CABAC : Yes
Format settings, ReFrames : 4 frames
Codec ID : V_MPEG4/ISO/AVC
Duration : 1h 30mn
Bit rate mode : Constant
Bit rate : 10 000 Kbps
Width : 1 920 pixels
Height : 1 080 pixels
Display aspect ratio : 16:9
Frame rate mode : Constant
Frame rate : 23.976 (24000/1001) fps
Color space : YUV
Chroma subsampling : 4:2:0
Bit depth : 8 bits
Scan type : Progressive
Bits/(Pixel*Frame) : 0.201
Stream size : 6.01 GiB (90%)
Default : Yes
Forced : No
Color range : Limited
Color primaries : BT.709
Transfer characteristics : BT.709
Matrix coefficients : BT.709
Audio #1
ID : 2
Format : AC-3
Format/Info : Audio Coding 3
Mode extension : CM (complete main)
Format settings, Endianness : Big
Codec ID : A_AC3
Duration : 1h 30mn
Bit rate mode : Constant
Bit rate : 448 Kbps
Channel(s) : 6 channels
Channel positions : Front: L C R, Side: L R, LFE
Sampling rate : 48.0 KHz
Frame rate : 31.250 fps (1536 spf)
Compression mode : Lossy
Stream size : 289 MiB (4%)
Language : Russian
Default : Yes
Forced : No
Audio #2
ID : 3
Format : E-AC-3
Format/Info : Audio Coding 3
Format settings, Endianness : Big
Codec ID : A_EAC3
Duration : 1h 30mn
Bit rate mode : Constant
Bit rate : 640 Kbps
Channel(s) : 6 channels
Channel positions : Front: L C R, Side: L R, LFE
Sampling rate : 48.0 KHz
Frame rate : 187.500 fps (256 spf)
Compression mode : Lossy
Stream size : 412 MiB (6%)
Language : English
Default : No
Forced : No
Text #1
ID : 4
Format : UTF-8
Codec ID : S_TEXT/UTF8
Codec ID/Info : UTF-8 Plain Text
Duration : 1h 26mn
Bit rate : 57 bps
Count of elements : 1200
Stream size : 36.5 KiB (0%)
Language : English
Default : No
Forced : No
Text #2
ID : 5
Format : UTF-8
Codec ID : S_TEXT/UTF8
Codec ID/Info : UTF-8 Plain Text
Duration : 1h 26mn
Bit rate : 61 bps
Count of elements : 1405
Stream size : 39.4 KiB (0%)
Title : SDH
Language : English
Default : No
Forced : No
Menu
00:00:00.000 : Studio logos
00:00:16.000 : Opening credits
00:03:30.000 : MacPherson is traumatized by his past
00:08:21.000 : MacPherson finally agrees to meet Miguel, multiple locations
00:12:43.000 : MacPherson enquires about Miguel, hotel
00:16:44.000 : Victor agrees to drop off MacPherson, New Lago
00:20:40.000 : MacPherson finds nothing at the address Miguel gave him
00:26:31.000 : MacPherson checks into a hotel, hotel
00:29:33.000 : MacPherson goes to Carly's shop to find a book, Carly's Corner
00:34:06.000 : MacPherson recalls Miguel giving him a copy of Watership Down, hospital
00:35:31.000 : Rhodes tries to talk to MacPherson, restaurant
00:44:35.000 : Bock arrests MacPherson & torture him, New Lago
00:46:22.000 : Rhodes blackmails MacPherson when he enquires about Miguel, New Lago
00:50:44.000 : MacPherson tries to escape, New Lago & ranch
00:57:05.000 : MacPherson recalls the combat operation in Iraq, ranch & battlefield
00:58:05.000 : MacPherson regains consciousness & Joanna tells him the truth about Rhodes, house
01:04:04.000 : Joanna shows a tape of Miguel's death
01:11:01.000 : E.B. delivers MacPherson's warning to Rhodes, ranch
01:13:39.000 : Bock orders others to shoot at the car, New Lago
01:17:28.000 : Deputy Foster teams up with MacPherson & helps him fight against Rhodes, New Lago
01:21:51.000 : MacPherson avenges Miguel's death, New Lago
01:26:21.000 : MacPherson starts a new life with Joanna & Carly in New Lago, ranch
01:27:28.000 : End credits
Скриншоты:
-

[Цитировать]



Показать сообщения:    

Текущее время: 08-Дек 03:12

Часовой пояс: UTC + 6


Вы не можете начинать темы
Вы не можете отвечать на сообщения
Вы не можете редактировать свои сообщения
Вы не можете удалять свои сообщения
Вы не можете голосовать в опросах
Вы не можете прикреплять файлы к сообщениям
Вы не можете скачивать файлы

!ВНИМАНИЕ!
Сайт не предоставляет электронные версии произведений, а занимается лишь коллекционированием и каталогизацией ссылок, присылаемых и публикуемых на форуме нашими читателями. Если вы являетесь правообладателем какого-либо представленного материала и не желаете, чтобы ссылка на него находилась в нашем каталоге, свяжитесь с нами, и мы незамедлительно удалим ее. Файлы для обмена на трекере предоставлены пользователями сайта, и администрация не несет ответственности за их содержание. Просьба не заливать файлы, защищенные авторскими правами, а также файлы нелегального содержания!