***Уважаемые пользователи и гости !!! Сайт переехал на новый домен Torrents-club.info. Просьба изменить ваши закладки! ***
 
[ Сегодня идет свободное скачивание без начисления Download ]


Статистика раздачи
Скачал: [ 1 ]
 
   
 
 
 
 
Леди на драйве / Lady Driver- Год выпуска: 2020
Выпущено: США, ESX Entertainment, Forrest Films
Жанр: Спорт
Продолжительность: 01:44:21
Перевод: Профессиональный (многоголосый, закадровый) | iTunes
Режиссер: Шон Пол Пичинино
В ролях: Грэйс Ван Дин, Шон Патрик Флэнери, Кристина Мур, Каспер Ван Дин, Аманда Детмер, Джон Дьюси, Matthew Joel Kranyak, Дэвид Гридли, Камерон МакКендри, Джек Келли
О фильме: Бунтующий подросток отправляется в одиночное путешествие в поисках родственников. Оказываясь в новом мире, она готовится к первым в своей жизни гонкам, и узнает, что с ними связана вся жизнь ее семьи.

Качество: BDRip 1080p
Видео: MPEG-4 AVC, 6609 Кбит/с, 1920x804
Аудио 1: AC3, 6 ch, 384 Кбит/с
Аудио 2: DTS-HD MA, 6 ch, 1680 Кбит/с
Субтитры: Немецкие

Скриншоты

Инфо

Общее
Уникальный идентификатор : 170207183128093943441477460715173848878 (0x800CB608EBB61AF26529004949C8272E)
Полное имя : E:TorrentsLady.Driver.2020.1080p.BDRip.mkv
Формат : Matroska
Версия формата : Version 4
Размер файла : 6,37 Гбайт
Продолжительность : 1 ч. 45 м.
Режим общего битрейта : Переменный
Общий поток : 8 675 Кбит/сек
Название фильма : Lady.Driver.2020.1080p.BDRip
Дата кодирования : UTC 2021-08-29 11:20:19
Программа кодирования : mkvmerge v59.0.0 ('Shining Star') 64-bit
Библиотека кодирования : libebml v1.4.2 + libmatroska v1.6.4
Видео
Идентификатор : 1
Формат : AVC
Формат/Информация : Advanced Video Codec
Профиль формата : High@L4.1
Настройки формата : CABAC / 5 Ref Frames
Параметр CABAC формата : Да
Параметр RefFrames формата : 5 кадров
Идентификатор кодека : V_MPEG4/ISO/AVC
Продолжительность : 1 ч. 45 м.
Битрейт : 6 609 Кбит/сек
Ширина : 1 920 пикселей
Высота : 804 пикселя
Соотношение сторон : 2,40:1
Режим частоты кадров : Постоянный
Частота кадров : 23,976 (24000/1001) кадра/сек
Цветовое пространство : YUV
Субдискретизация насыщенности : 4:2:0
Битовая глубина : 8 бит
Тип развёртки : Прогрессивная
Бит/(Пиксели*Кадры) : 0.179
Размер потока : 4,85 Гбайт (76%)
Библиотека кодирования : x264 core 164 r3065 ae03d92
Настройки программы : cabac=1 / ref=5 / deblock=1:-3:-3 / analyse=0x3:0x133 / me=umh / subme=9 / psy=1 / psy_rd=1.00:0.00 / mixed_ref=1 / me_range=16 / chroma_me=1 / trellis=2 / 8x8dct=1 / cqm=0 / deadzone=21,11 / fast_pskip=0 / chroma_qp_offset=-2 / threads=25 / lookahead_threads=2 / sliced_threads=0 / nr=0 / decimate=1 / interlaced=0 / bluray_compat=0 / constrained_intra=0 / bframes=3 / b_pyramid=2 / b_adapt=2 / b_bias=0 / direct=3 / weightb=1 / open_gop=0 / weightp=2 / keyint=250 / keyint_min=23 / scenecut=40 / intra_refresh=0 / rc_lookahead=60 / rc=crf / mbtree=1 / crf=17.0 / qcomp=0.60 / qpmin=0 / qpmax=69 / qpstep=4 / ip_ratio=1.40 / aq=1:1.00
Язык : English
Default : Да
Forced : Нет
Аудио #1
Идентификатор : 2
Формат : AC-3
Формат/Информация : Audio Coding 3
Коммерческое название : Dolby Digital
Идентификатор кодека : A_AC3
Продолжительность : 1 ч. 44 м.
Вид битрейта : Постоянный
Битрейт : 384 Кбит/сек
Каналы : 6 каналов
Channel layout : L R C LFE Ls Rs
Частота : 48,0 КГц
Частота кадров : 31,250 кадров/сек (1536 SPF)
Метод сжатия : С потерями
Размер потока : 287 Мбайт (4%)
Заголовок : iTunes
Язык : Russian
Service kind : Complete Main
Default : Да
Forced : Нет
Аудио #2
Идентификатор : 3
Формат : DTS XLL
Формат/Информация : Digital Theater Systems
Коммерческое название : DTS-HD Master Audio
Идентификатор кодека : A_DTS
Продолжительность : 1 ч. 44 м.
Вид битрейта : Переменный
Битрейт : 1 680 Кбит/сек
Каналы : 6 каналов
Channel layout : C L R Ls Rs LFE
Частота : 48,0 КГц
Частота кадров : 93,750 кадра/сек (512 SPF)
Битовая глубина : 16 бит
Метод сжатия : Без потерь
Размер потока : 1,23 Гбайт (19%)
Язык : English
Default : Нет
Forced : Нет
Текст
Идентификатор : 4
Формат : PGS
Режим смешивания : zlib
Идентификатор кодека : S_HDMV/PGS
Идентификатор кодека/Информация : Picture based subtitle format used on BDs/HD-DVDs
Продолжительность : 1 ч. 39 м.
Битрейт : 26,8 Кбит/сек
Count of elements : 2354
Размер потока : 19,1 Мбайт (0%)
Язык : German
Default : Нет
Forced : Нет
Меню
00:00:00.000 : Chapter 01
00:09:01.583 : Chapter 02
00:20:19.552 : Chapter 03
00:26:33.217 : Chapter 04
00:36:42.784 : Chapter 05
00:52:55.297 : Chapter 06
01:07:10.860 : Chapter 07
01:22:55.554 : Chapter 08
01:35:22.467 : Chapter 09
01:44:28.220 : Chapter 10
01:44:49.241 : Chapter 11

[Цитировать]



Показать сообщения:    

Текущее время: 08-Дек 02:49

Часовой пояс: UTC + 6


Вы не можете начинать темы
Вы не можете отвечать на сообщения
Вы не можете редактировать свои сообщения
Вы не можете удалять свои сообщения
Вы не можете голосовать в опросах
Вы не можете прикреплять файлы к сообщениям
Вы не можете скачивать файлы

!ВНИМАНИЕ!
Сайт не предоставляет электронные версии произведений, а занимается лишь коллекционированием и каталогизацией ссылок, присылаемых и публикуемых на форуме нашими читателями. Если вы являетесь правообладателем какого-либо представленного материала и не желаете, чтобы ссылка на него находилась в нашем каталоге, свяжитесь с нами, и мы незамедлительно удалим ее. Файлы для обмена на трекере предоставлены пользователями сайта, и администрация не несет ответственности за их содержание. Просьба не заливать файлы, защищенные авторскими правами, а также файлы нелегального содержания!