***Уважаемые пользователи и гости !!! Сайт переехал на новый домен Torrents-club.info. Просьба изменить ваши закладки! ***
 
[ Сегодня идет свободное скачивание без начисления Download ]


Статистика раздачи
Скачал: [ 1 ]
 
   
 
 
 
 
Оборотни внутри / Werewolves Within- Год выхода: 2021
Страна: США
Студия: Ubi Soft Entertainment, Ubisoft Motion Pictures, Vanishing Angle
Жанр: Ужасы, комедия, детектив
Продолжительность: 01:36:38
Перевод: Профессиональный (полное дублирование) | iTunes-Режиссер:
Джош Рубен-В ролях:
Сэм Ричардсон, Милана Вайнтруб, Джордж Бейзил, Сара Бёрнс, Майкл Чернус, Кэти Куртин, Уэйн Дювалл, Харви Гильен, Ребекка Хендерсон, Шайен Джексон-О фильме:
Мягкий парень Финн Уилер назначен новым рейнджером в захолустный северный городок Биверфилд. Он знакомится с жителями, которые оказываются один чуднее другого, и только девушка-почтальон Сесили кажется ему адекватным человеком, и даже больше — родной душой. Когда Биверфилд накрывает сильный снегопад и отключаются все коммуникации, выясняется, что кто-то не только убил собачку миссис Андертон, но и повредил генераторы. Местные и приехавшие по вопросу проведения в эту глушь газопровода собираются в гостевом доме и вскоре приходят к выводу, что среди них затаился хитрый оборотень.- -Качество: BDRip 1080p
Формат: MKV
Видео: MPEG-4 AVC, 1920x804, 11.0 Mbit/s, 23.976 fps
Аудио #01: 48 kHz, AC3, 5.1, 384 Kbps | Дублированный | RUS |
Аудио #02: 48 kHz, AC3, 5.1, 640 Kbps | Оригинал | ENG |
Субтитры: Русские (Forced, full), английские-

Скриншоты

MI

General
Unique ID : 299464095719571617705913088254262573352 (0xE14AAFDA16A9C380359E3C66F0EAF928)
Complete name : E:VideoWerewolves.Within.1080p.BDRip.1080p.seleZen.mkv
Format : Matroska
Format version : Version 4
File size : 8.12 GiB
Duration : 1 h 36 min
Overall bit rate : 12.0 Mb/s
Movie name : Werewolves Within 2021 from seleZen
Encoded date : UTC 2021-09-06 10:37:08
Writing application : mkvmerge v59.0.0 ('Shining Star') 64-bit
Writing library : libebml v1.4.2 + libmatroska v1.6.4
Video
ID : 1
Format : AVC
Format/Info : Advanced Video Codec
Format profile : High@L4.1
Format settings : CABAC / 5 Ref Frames
Format settings, CABAC : Yes
Format settings, Reference : 5 frames
Codec ID : V_MPEG4/ISO/AVC
Duration : 1 h 36 min
Bit rate : 11.0 Mb/s
Width : 1 920 pixels
Height : 804 pixels
Display aspect ratio : 2.40:1
Frame rate mode : Constant
Frame rate : 23.976 (24000/1001) FPS
Color space : YUV
Chroma subsampling : 4:2:0
Bit depth : 8 bits
Scan type : Progressive
Bits/(Pixel*Frame) : 0.297
Stream size : 7.42 GiB (91%)
Writing library : x264 core 146 -from seleZen
Encoding settings : cabac=1 / ref=5 / deblock=1:-2:-2 / analyse=0x3:0x133 / me=umh / subme=11 / psy=1 / psy_rd=1.06:0.05 / mixed_ref=1 / me_range=32 / chroma_me=1 / trellis=2 / 8x8dct=1 / cqm=0 / deadzone=21,11 / fast_pskip=0 / chroma_qp_offset=-3 / threads=36 / lookahead_threads=6 / sliced_threads=0 / nr=0 / decimate=0 / interlaced=0 / bluray_compat=0 / constrained_intra=0 / bframes=9 / b_pyramid=2 / b_adapt=2 / b_bias=0 / direct=3 / weightb=1 / open_gop=0 / weightp=2 / keyint=240 / keyint_min=23 / scenecut=40 / intra_refresh=0 / rc_lookahead=50 / rc=2pass / mbtree=0 / bitrate=11000 / ratetol=1.0 / qcomp=0.60 / qpmin=0 / qpmax=51 / qpstep=4 / cplxblur=20.0 / qblur=0.5 / vbv_maxrate=50000 / vbv_bufsize=62500 / nal_hrd=none / filler=0 / ip_ratio=1.40 / pb_ratio=1.30 / aq=3:0.80
Language : English
Default : Yes
Forced : No
Audio #1
ID : 2
Format : AC-3
Format/Info : Audio Coding 3
Commercial name : Dolby Digital
Codec ID : A_AC3
Duration : 1 h 36 min
Bit rate mode : Constant
Bit rate : 384 kb/s
Channel(s) : 6 channels
Channel layout : L R C LFE Ls Rs
Sampling rate : 48.0 kHz
Frame rate : 31.250 FPS (1536 SPF)
Compression mode : Lossy
Stream size : 265 MiB (3%)
Title : iTunes
Language : Russian
Service kind : Complete Main
Default : Yes
Forced : Yes
Audio #2
ID : 3
Format : AC-3
Format/Info : Audio Coding 3
Commercial name : Dolby Digital
Codec ID : A_AC3
Duration : 1 h 36 min
Bit rate mode : Constant
Bit rate : 640 kb/s
Channel(s) : 6 channels
Channel layout : L R C LFE Ls Rs
Sampling rate : 48.0 kHz
Frame rate : 31.250 FPS (1536 SPF)
Compression mode : Lossy
Stream size : 442 MiB (5%)
Title : Original
Language : English
Service kind : Complete Main
Default : No
Forced : No
Text #1
ID : 4
Format : UTF-8
Codec ID : S_TEXT/UTF8
Codec ID/Info : UTF-8 Plain Text
Duration : 4 min 21 s
Bit rate : 9 b/s
Count of elements : 7
Stream size : 312 Bytes (0%)
Title : Forced
Language : Russian
Default : Yes
Forced : Yes
Text #2
ID : 5
Format : UTF-8
Codec ID : S_TEXT/UTF8
Codec ID/Info : UTF-8 Plain Text
Duration : 1 h 33 min
Bit rate : 107 b/s
Count of elements : 1438
Stream size : 73.8 KiB (0%)
Title : Full
Language : Russian
Default : No
Forced : No
Text #3
ID : 6
Format : UTF-8
Codec ID : S_TEXT/UTF8
Codec ID/Info : UTF-8 Plain Text
Duration : 40 min 59 s
Bit rate : 84 b/s
Count of elements : 703
Stream size : 25.4 KiB (0%)
Title : Full
Language : English
Default : No
Forced : No
Text #4
ID : 7
Format : UTF-8
Codec ID : S_TEXT/UTF8
Codec ID/Info : UTF-8 Plain Text
Duration : 41 min 48 s
Bit rate : 93 b/s
Count of elements : 735
Stream size : 28.6 KiB (0%)
Title : SDH
Language : English
Default : No
Forced : No
Menu
00:00:00.000 : Chapter 01
00:09:32.489 : Chapter 02
00:17:22.833 : Chapter 03
00:26:47.397 : Chapter 04
00:35:09.566 : Chapter 05
00:42:14.824 : Chapter 06
00:51:49.606 : Chapter 07
01:02:56.439 : Chapter 08
01:12:04.195 : Chapter 09
01:19:09.036 : Chapter 10
01:23:39.932 : Chapter 11
01:30:17.329 : Chapter 12

[Цитировать]



Показать сообщения:    

Текущее время: 08-Дек 02:43

Часовой пояс: UTC + 6


Вы не можете начинать темы
Вы не можете отвечать на сообщения
Вы не можете редактировать свои сообщения
Вы не можете удалять свои сообщения
Вы не можете голосовать в опросах
Вы не можете прикреплять файлы к сообщениям
Вы не можете скачивать файлы

!ВНИМАНИЕ!
Сайт не предоставляет электронные версии произведений, а занимается лишь коллекционированием и каталогизацией ссылок, присылаемых и публикуемых на форуме нашими читателями. Если вы являетесь правообладателем какого-либо представленного материала и не желаете, чтобы ссылка на него находилась в нашем каталоге, свяжитесь с нами, и мы незамедлительно удалим ее. Файлы для обмена на трекере предоставлены пользователями сайта, и администрация не несет ответственности за их содержание. Просьба не заливать файлы, защищенные авторскими правами, а также файлы нелегального содержания!