***Уважаемые пользователи и гости !!! Сайт переехал на новый домен Torrents-club.info. Просьба изменить ваши закладки! ***
 
[ Сегодня идет свободное скачивание без начисления Download ]


Статистика раздачи
Нет
 
   
 
 
 
 
Вечеринка по случаю развода / The Divorce Party - Год выхода: 2019
Страна: США
Студия: 2020 Entertainment, Sprockefeller Pictures, The Film House
Жанр: Мелодрама, комедия
Продолжительность: 01:33:36
Перевод: Профессиональный (полное дублирование) | iTunes-Режиссер:
Уилльям Томпсон-В ролях:
Катрина Боуден, Матильда Анна Ингрид Лутс, Клер Холт, Томас Кокерел, Тодд Ласанс, Том Райт, Лэйн Гаррисон, Марк Фамиглетти, Зои Майерс, Джералд МакКаллух-О фильме:
В центре сюжета оказываются Нейт и Сьюзен, которые прожили вместе несколько лет, пока женщина не ошеломила своего мужа тем, что она несчастлива в браке и хочет развестись. Разочарованный переменами Нейт пакует свои вещи и переезжает в отель. Вскоре он с удивлением обнаруживает, что их общие друзья весело проводят время с его бывшей, а о нем они совсем забыли. Через некоторое время он встречает Кэти, свою старую знакомую, которая уговаривает его организовать вечеринку по случаю развода, чтобы наконец-то найти в себе силы начать новую жизнь...- -Качество: BDRip 1080p
Формат: MKV
Видео: MPEG-4 AVC, 10.0 Mb/s, 1920x816
Аудио #01: 48 kHz, AC3, 5.1, 384 Kbps | Дублированный | iTunes | RUS |
Аудио #02: 48 kHz, AC3, 2.0, 640 Kbps | Оригинал | ENG |
Субтитры: Нет
Дополнительно: Сохранены оригинальные чаптеры.-

MediaInfo:

Complete name: Vecherinka.po.sluchayu.razvoda.2019.BDRip.1080p.ELEKTRI4KA.UNIONGANG.mkv
Format: Matroska
Format version: Version 4
File size: 7.21 GiB
Duration: 1 h 33 min
Overall bit rate: 11.0 Mb/s
Movie name: Vecherinka.po.sluchayu.razvoda.2019.BDRip.1080p.ELEKTRI4KA.UNIONGANG.
Encoded date: UTC 2021-09-07 16:20:42
Writing application: mkvmerge v8.3.0 ('Over the Horizon') 32bit
Writing library: libebml v1.3.1 + libmatroska v1.4.2
Video
ID: 1
Format: AVC
Format/Info: Advanced Video Codec
Format profile: High@L4.1
Format settings: CABAC / 5 Ref Frames
Format settings, CABAC: Yes
Format settings, Reference frames: 5 frames
Codec ID: V_MPEG4/ISO/AVC
Duration: 1 h 33 min
Bit rate: 10 000 kb/s
Width: 1 920 pixels
Height: 816 pixels
Display aspect ratio: 2.35:1
Frame rate mode: Constant
Frame rate: 23.976 (24000/1001) FPS
Color space: YUV
Chroma subsampling: 4:2:0
Bit depth: 8 bits
Scan type: Progressive
Bits/(Pixel*Frame): 0.266
Stream size: 6.54 GiB (91%)
Writing library: x264 core 157 r2958 57baac4
Encoding settings: cabac=1 / ref=5 / deblock=1:-3:-3 / analyse=0x3:0x113 / me=umh / subme=10 / psy=1 / psy_rd=1.00:0.00 / mixed_ref=1 / me_range=32 / chroma_me=1 / trellis=2 / 8x8dct=1 / cqm=0 / deadzone=21, 11 / fast_pskip=0 / chroma_qp_offset=-2 / threads=49 / lookahead_threads=6 / sliced_threads=0 / nr=0 / decimate=0 / interlaced=0 / bluray_compat=0 / constrained_intra=0 / bframes=8 / b_pyramid=2 / b_adapt=2 / b_bias=0 / direct=3 / weightb=0 / open_gop=0 / weightp=2 / keyint=240 / keyint_min=24 / scenecut=40 / intra_refresh=0 / rc=2pass / mbtree=0 / bitrate=10000 / ratetol=1.0 / qcomp=0.60 / qpmin=0 / qpmax=69 / qpstep=4 / cplxblur=20.0 / qblur=0.5 / ip_ratio=1.40 / pb_ratio=1.30 / aq=1:1.00
Default: Yes
Forced: No
Audio #1
ID: 2
Format: AC-3
Format/Info: Audio Coding 3
Commercial name: Dolby Digital
Codec ID: A_AC3
Duration: 1 h 33 min
Bit rate mode: Constant
Bit rate: 384 kb/s
Channel(s): 6 channels
Channel layout: L R C LFE Ls Rs
Sampling rate: 48.0 kHz
Frame rate: 31.250 FPS (1536 SPF)
Compression mode: Lossy
Stream size: 257 MiB (3%)
Title: DUB (iTunes)
Language: Russian
Service kind: Complete Main
Default: Yes
Forced: Yes
Audio #2
ID: 3
Format: AC-3
Format/Info: Audio Coding 3
Commercial name: Dolby Digital
Codec ID: A_AC3
Duration: 1 h 33 min
Bit rate mode: Constant
Bit rate: 640 kb/s
Channel(s): 2 channels
Channel layout: L R
Sampling rate: 48.0 kHz
Frame rate: 31.250 FPS (1536 SPF)
Compression mode: Lossy
Stream size: 428 MiB (6%)
Title: Original
Language: English
Service kind: Complete Main
Default: No
Forced: No
Menu
00:00:00.000: :Chapter 1
00:10:47.855: :Chapter 2
00:19:29.500: :Chapter 3
00:31:49.740: :Chapter 4
00:49:34.471: :Chapter 5
01:00:41.887: :Chapter 6
01:11:40.421: :Chapter 7
01:19:52.496: :Chapter 8
01:33:34.984: :Chapter 9

Скриншоты


Релиз группы: &

[Цитировать]



Показать сообщения:    

Текущее время: 08-Дек 03:31

Часовой пояс: UTC + 6


Вы не можете начинать темы
Вы не можете отвечать на сообщения
Вы не можете редактировать свои сообщения
Вы не можете удалять свои сообщения
Вы не можете голосовать в опросах
Вы не можете прикреплять файлы к сообщениям
Вы не можете скачивать файлы

!ВНИМАНИЕ!
Сайт не предоставляет электронные версии произведений, а занимается лишь коллекционированием и каталогизацией ссылок, присылаемых и публикуемых на форуме нашими читателями. Если вы являетесь правообладателем какого-либо представленного материала и не желаете, чтобы ссылка на него находилась в нашем каталоге, свяжитесь с нами, и мы незамедлительно удалим ее. Файлы для обмена на трекере предоставлены пользователями сайта, и администрация не несет ответственности за их содержание. Просьба не заливать файлы, защищенные авторскими правами, а также файлы нелегального содержания!