***Уважаемые пользователи и гости !!! Сайт переехал на новый домен Torrents-club.info. Просьба изменить ваши закладки! ***
 
[ Сегодня идет свободное скачивание без начисления Download ]


Статистика раздачи
Нет
 
   
 
 
 
Казино / Casino (1995) Год выпуска: 1995
Страна: США, Франция
Жанр: драма, криминал
Продолжительность: 02:58:30
Перевод: Дублированный | DVO BD EUR
Перевод: Одноголосый закадровый | Д. Пучков
Субтитры: русские | DVO BD EUR
Режиссер: Мартин Скорсезе
В ролях:
Роберт Де Ниро, Шэрон Стоун, Джо Пеши, Джеймс Вудс, Фрэнк Винсент, Паскуале Кайано, Кевин Поллак, Дон Риклз, Винни Велла, Алан Кинг, Дик Смотерз, Джозеф Ригано, Джон Блум, Мелисса Профет, Билл Эллисон, Джин Руффини, Доминик Греко, Эрика Фон Таген, Катрин Скорсезе, Филип Суриано
Описание:
Никто не может сравниться с Сэмом Ротстином. Никто не умеет зарабатывать деньги, как он. Никто не умеет работать так самоотверженно и аккуратно, как трудяга Сэм. За свои неоспоримые достоинства Ротстин получил кличку Ас. И именно поэтому боссы мафии решили поручить Асу заправлять огромным шикарным казино в Лас-Вегасе. А чтобы Сэму никто не мешал работать, мафиози отправили вслед за Асом друга детства Ротстина - Никки Санторо, отпетого бандита и безжалостного головореза.
Мировая премьера: 3 апреля 1995

Качество: HyBriDRip - HEVC 1080p Rip by DD2D3
Видео: V_MPEGH/ISO/HEVC; 1920x1080 (16:9); 3670 Kbps; 60 fps; 0,029 bpp
Аудио: русский; DTS; 768 Kbps; CBR; 6 ch 24 bit||
Аудио: русский; AC3; 256 Kbps; CBR; 2 ch ||
Навигация по главам: нет

MediaInfo:

Общее
Уникальный идентификатор : 251362074084983898063399628750567841041 (0xBD1A9314D0888112BF27B9842D7D1D11)
Полное имя : D:\Casino (1995) [Open Matte] HyBriDRip - HEVC 1080p 10 bit 60 FPS.mkv
Формат : Matroska
Версия формата : Version 2
Размер файла : 5,97 Гбайт
Продолжительность : 2 ч. 58 м.
Общий поток : 4 790 Кбит/сек
Название фильма : Rip by from DD2D3
Дата кодирования : UTC 2022-06-15 11:20:07
Программа кодирования : mkvmerge v6.9.1 ('Blue Panther') 32bit built on Apr 18 2014 18:15:44
Библиотека кодирования : libebml v1.3.0 + libmatroska v1.4.1
Attachments : poster
Видео
Идентификатор : 1
Формат : HEVC
Формат/Информация : High Efficiency Video Coding
Профиль формата : Main 10@L4.1@Main
Идентификатор кодека : V_MPEGH/ISO/HEVC
Продолжительность : 2 ч. 58 м.
Битрейт : 3 670 Кбит/сек
Ширина : 1 920 пикселей
Высота : 1 080 пикселей
Соотношение сторон : 16:9
Режим частоты кадров : Постоянный
Частота кадров : 60,000 кадров/сек
Цветовое пространство : YUV
Субдискретизация насыщенности : 4:2:0
Битовая глубина : 10 бит
Бит/(Пиксели*Кадры) : 0.029
Размер потока : 4,58 Гбайт (77%)
Default : Да
Forced : Нет
Цветовой диапазон : Limited
Основные цвета : BT.709
Характеристики трансфера : BT.709
Коэффициенты матрицы : BT.709
Аудио #1
Идентификатор : 2
Формат : DTS
Формат/Информация : Digital Theater Systems
Идентификатор кодека : A_DTS
Продолжительность : 2 ч. 58 м.
Вид битрейта : Постоянный
Битрейт : 768 Кбит/сек
Каналы : 6 каналов
Channel layout : C L R Ls Rs LFE
Частота : 48,0 КГц
Частота кадров : 93,750 кадра/сек (512 SPF)
Битовая глубина : 24 бит
Метод сжатия : С потерями
Размер потока : 981 Мбайт (16%)
Заголовок : DVO BD EUR
Язык : Russian
Default : Да
Forced : Нет
Statistics Tags Issue : mkvmerge v46.0.0 ('No Deeper Escape') 64-bit 2020-06-02 05:43:18 / mkvmerge v6.9.1 ('Blue Panther') 32bit built on Apr 18 2014 18:15:44 2022-06-15 11:20:07
FromStats_BitRate : 767999
FromStats_Duration : 02:58:30.721000000
FromStats_FrameCount : 1004130
FromStats_StreamSize : 1028229120
Аудио #2
Идентификатор : 3
Формат : AC-3
Формат/Информация : Audio Coding 3
Коммерческое название : Dolby Digital
Настройки формата : Dolby Surround
Идентификатор кодека : A_AC3
Продолжительность : 2 ч. 58 м.
Вид битрейта : Постоянный
Битрейт : 256 Кбит/сек
Каналы : 2 канала
Channel layout : L R
Частота : 48,0 КГц
Частота кадров : 31,250 кадров/сек (1536 SPF)
Метод сжатия : С потерями
Размер потока : 327 Мбайт (5%)
Заголовок : Пучков(Goblin)
Язык : Russian
Service kind : Complete Main
Default : Нет
Forced : Нет
Statistics Tags Issue : mkvmerge v46.0.0 ('No Deeper Escape') 64-bit 2020-06-02 05:43:18 / mkvmerge v6.9.1 ('Blue Panther') 32bit built on Apr 18 2014 18:15:44 2022-06-15 11:20:07
FromStats_BitRate : 256000
FromStats_Duration : 02:58:23.840000000
FromStats_FrameCount : 334495
FromStats_StreamSize : 342522880
Текст
Идентификатор : 4
Формат : UTF-8
Идентификатор кодека : S_TEXT/UTF8
Идентификатор кодека/Информация : UTF-8 Plain Text
Заголовок : Full
Язык : Russian
Default : Нет
Forced : Нет
Statistics Tags Issue : mkvmerge v46.0.0 ('No Deeper Escape') 64-bit 2020-06-02 05:43:18 / mkvmerge v6.9.1 ('Blue Panther') 32bit built on Apr 18 2014 18:15:44 2022-06-15 11:20:07
FromStats_BitRate : 142
FromStats_Duration : 02:51:07.351000000
FromStats_FrameCount : 2711
FromStats_StreamSize : 182635

[Цитировать]



Показать сообщения:    

Текущее время: 10-Авг 18:18

Часовой пояс: UTC + 6


Вы не можете начинать темы
Вы не можете отвечать на сообщения
Вы не можете редактировать свои сообщения
Вы не можете удалять свои сообщения
Вы не можете голосовать в опросах
Вы не можете прикреплять файлы к сообщениям
Вы не можете скачивать файлы

!ВНИМАНИЕ!
Сайт не предоставляет электронные версии произведений, а занимается лишь коллекционированием и каталогизацией ссылок, присылаемых и публикуемых на форуме нашими читателями. Если вы являетесь правообладателем какого-либо представленного материала и не желаете, чтобы ссылка на него находилась в нашем каталоге, свяжитесь с нами, и мы незамедлительно удалим ее. Файлы для обмена на трекере предоставлены пользователями сайта, и администрация не несет ответственности за их содержание. Просьба не заливать файлы, защищенные авторскими правами, а также файлы нелегального содержания!