***Уважаемые пользователи и гости !!! Сайт переехал на новый домен Torrents-club.info. Просьба изменить ваши закладки! ***
 
[ Сегодня идет свободное скачивание без начисления Download ]


Статистика раздачи
Нет
 
   
 
 
 
 
VA - Vital Hard House - Mixed By Anne Savage
Страна-производитель диска: UK
Год издания диска: 2001
Жанр: Hard House
Издатель (лейбл): Ministry (Magazine)
Номер по каталогу: MINMAG37 / FEB01
Аудио кодек: FLAC (*.flac)
Тип рипа: tracks+.cue
Битрейт аудио: lossless
Продолжительность: 01:10:25
Источник (релизер): what.cd (featherman)

Треклист:

01. Locked In Time (Anne Savage Mix) [00:05:20]
02. Say Yeah (Original Mix) [00:05:11]
03. Trappy Lil's Madness (Ingo Mix) [00:05:07]
04. Getting Warm (Original Mix) [00:05:19]
05. D.E.V.I.L. (BK Mix) [00:05:05]
06. Can't Beat The System (Ingo Remix) [00:04:43]
07. The Crow -What You're Lookin'? (Savage And Lashes Vs Ingo) [00:05:58]
08. Ready For Dis [00:05:32]
09. Out Of Control (Avis Van Rental Mix) [00:05:05]
10. Here We Go [00:05:33]
11. I Wanna Be Your Lover [00:05:40]
12. Kick It [00:06:25]
13. Nocturnal (Phat Mix) [00:05:20]

Лог создания рипа

Exact Audio Copy V0.99 prebeta 5 from 4. May 2009
EAC extraction logfile from 12. July 2010, 4:29
VA - Vital Hard House - Mixed By Anne Savage
Used drive  : LITE-ON LTR-48246S   Adapter: 0  ID: 0
Read mode               : Secure
Utilize accurate stream : Yes
Defeat audio cache      : Yes
Make use of C2 pointers : No
Read offset correction                      : 6
Overread into Lead-In and Lead-Out          : No
Fill up missing offset samples with silence : Yes
Delete leading and trailing silent blocks   : No
Null samples used in CRC calculations       : Yes
Used interface                              : Native Win32 interface for Win NT & 2000
Gap handling                                : Appended to previous track
Used output format              : User Defined Encoder
Selected bitrate                : 128 kBit/s
Quality                         : High
Add ID3 tag                     : No
Command line compressor         : C:\Program Files (x86)\Exact Audio Copy\Flac\flac.exe
Additional command line options : -8 -V -T "ARTIST=%a" -T "TITLE=%t" -T "ALBUM=%g" -T "DATE=%y" -T "TRACKNUMBER=%n" -T "TOTALTRACKS=%x" -T "GENRE=%m" -T "ALBUMARTIST=%v" -T "ALBUM ARTIST=%v" -T "COMMENT=EAC Secure Mode, Test & Copy, AccurateRip, FLAC -8" %s
TOC of the extracted CD
     Track |   Start  |  Length  | Start sector | End sector
    ---------------------------------------------------------
        1  |  0:00.00 |  5:20.10 |         0    |    24009
        2  |  5:20.10 |  5:11.48 |     24010    |    47382
        3  | 10:31.58 |  5:07.11 |     47383    |    70418
        4  | 15:38.69 |  5:19.69 |     70419    |    94412
        5  | 20:58.63 |  5:05.19 |     94413    |   117306
        6  | 26:04.07 |  4:43.16 |    117307    |   138547
        7  | 30:47.23 |  5:58.17 |    138548    |   165414
        8  | 36:45.40 |  5:32.46 |    165415    |   190360
        9  | 42:18.11 |  5:05.62 |    190361    |   213297
       10  | 47:23.73 |  5:33.60 |    213298    |   238332
       11  | 52:57.58 |  5:40.48 |    238333    |   263880
       12  | 58:38.31 |  6:25.35 |    263881    |   292790
       13  | 65:03.66 |  5:20.56 |    292791    |   316846
Track  1
     Filename F:\From EAC\rip\01 - Steve Johnson Vs Kreation - Locked In Time (Anne Savage Mix).wav
     Pre-gap length  0:00:02.00
     Peak level 93.6 %
     Track quality 99.9 %
     Test CRC 02B99E2C
     Copy CRC 02B99E2C
     Accurately ripped (confidence 4)  [C725E099]
     Copy OK
Track  2
     Filename F:\From EAC\rip\02 - Bulletproof - Say Yeah (Original Mix).wav
     Peak level 93.8 %
     Track quality 100.0 %
     Test CRC 47D4DF8C
     Copy CRC 47D4DF8C
     Accurately ripped (confidence 4)  [8D560D18]
     Copy OK
Track  3
     Filename F:\From EAC\rip\03 - John Whiteman - Trappy Lil's Madness (Ingo Mix).wav
     Peak level 100.0 %
     Track quality 99.9 %
     Test CRC 7192CE26
     Copy CRC 7192CE26
     Accurately ripped (confidence 4)  [E1BB0A51]
     Copy OK
Track  4
     Filename F:\From EAC\rip\04 - Smokin' Bert Cooper - Getting Warm (Original Mix).wav
     Peak level 94.9 %
     Track quality 100.0 %
     Test CRC 9D1AEAFB
     Copy CRC 9D1AEAFB
     Accurately ripped (confidence 4)  [BADE8949]
     Copy OK
Track  5
     Filename F:\From EAC\rip\05 - 666 - D.E.V.I.L. (BK Mix).wav
     Peak level 99.3 %
     Track quality 100.0 %
     Test CRC 1093D291
     Copy CRC 1093D291
     Accurately ripped (confidence 4)  [1D2E2C01]
     Copy OK
Track  6
     Filename F:\From EAC\rip\06 - John Whiteman - Can't Beat The System (Ingo Remix).wav
     Peak level 100.0 %
     Track quality 100.0 %
     Test CRC 3C2EC352
     Copy CRC 3C2EC352
     Accurately ripped (confidence 4)  [DDC56E61]
     Copy OK
Track  7
     Filename F:\From EAC\rip\07 - DJ The Crow - The Crow -What You're Lookin'  (Savage And Lashes Vs Ingo).wav
     Peak level 100.0 %
     Track quality 100.0 %
     Test CRC 8A8CF267
     Copy CRC 8A8CF267
     Accurately ripped (confidence 4)  [0FD45420]
     Copy OK
Track  8
     Filename F:\From EAC\rip\08 - Ingo - Ready For Dis.wav
     Peak level 99.4 %
     Track quality 100.0 %
     Test CRC 5C829218
     Copy CRC 5C829218
     Accurately ripped (confidence 4)  [3FFA5C45]
     Copy OK
Track  9
     Filename F:\From EAC\rip\09 - Andy Farley - Out Of Control (Avis Van Rental Mix).wav
     Peak level 100.0 %
     Track quality 99.9 %
     Test CRC 4FA1BFE4
     Copy CRC 4FA1BFE4
     Accurately ripped (confidence 4)  [DA8888F8]
     Copy OK
Track 10
     Filename F:\From EAC\rip\10 - Paul Glazby - Here We Go.wav
     Peak level 100.0 %
     Track quality 100.0 %
     Test CRC F3A0BCB2
     Copy CRC F3A0BCB2
     Accurately ripped (confidence 4)  [1E097E68]
     Copy OK
Track 11
     Filename F:\From EAC\rip\11 - Vinylgroover And The Red hed - I Wanna Be Your Lover.wav
     Peak level 97.3 %
     Track quality 100.0 %
     Test CRC F2D4423C
     Copy CRC F2D4423C
     Accurately ripped (confidence 4)  [E7F2A3A7]
     Copy OK
Track 12
     Filename F:\From EAC\rip\12 - Paul Glazby - Kick It.wav
     Peak level 93.2 %
     Track quality 100.0 %
     Test CRC 870DA3DE
     Copy CRC 870DA3DE
     Accurately ripped (confidence 4)  [F49FA6B6]
     Copy OK
Track 13
     Filename F:\From EAC\rip\13 - Flinch - Nocturnal (Phat Mix).wav
     Peak level 94.4 %
     Track quality 100.0 %
     Test CRC 8E9E0261
     Copy CRC 8E9E0261
     Accurately ripped (confidence 4)  [ADB969EB]
     Copy OK
All tracks accurately ripped
No errors occurred
End of status report

Содержание индексной карты (.CUE)

REM GENRE Dance
REM DATE 2001
REM DISCID AB10800D
REM COMMENT "ExactAudioCopy v0.99pb5"
PERFORMER "Various Artists"
TITLE "Vital Hard House - Mixed By Anne Savage"
FILE "01 - Steve Johnson Vs Kreation - Locked In Time (Anne Savage Mix).wav" WAVE
  TRACK 01 AUDIO
    TITLE "Locked In Time (Anne Savage Mix)"
    PERFORMER "Steve Johnson Vs Kreation"
    INDEX 01 00:00:00
FILE "02 - Bulletproof - Say Yeah (Original Mix).wav" WAVE
  TRACK 02 AUDIO
    TITLE "Say Yeah (Original Mix)"
    PERFORMER "Bulletproof"
    INDEX 01 00:00:00
FILE "03 - John Whiteman - Trappy Lil's Madness (Ingo Mix).wav" WAVE
  TRACK 03 AUDIO
    TITLE "Trappy Lil's Madness (Ingo Mix)"
    PERFORMER "John Whiteman"
    INDEX 01 00:00:00
FILE "04 - Smokin' Bert Cooper - Getting Warm (Original Mix).wav" WAVE
  TRACK 04 AUDIO
    TITLE "Getting Warm (Original Mix)"
    PERFORMER "Smokin' Bert Cooper"
    INDEX 01 00:00:00
FILE "05 - 666 - D.E.V.I.L. (BK Mix).wav" WAVE
  TRACK 05 AUDIO
    TITLE "D.E.V.I.L. (BK Mix)"
    PERFORMER "666"
    INDEX 01 00:00:00
FILE "06 - John Whiteman - Can't Beat The System (Ingo Remix).wav" WAVE
  TRACK 06 AUDIO
    TITLE "Can't Beat The System (Ingo Remix)"
    PERFORMER "John Whiteman"
    INDEX 01 00:00:00
FILE "07 - DJ The Crow - The Crow -What You're Lookin'  (Savage And Lashes Vs Ingo).wav" WAVE
  TRACK 07 AUDIO
    TITLE "The Crow -What You're Lookin'? (Savage And Lashes Vs Ingo)"
    PERFORMER "DJ The Crow"
    INDEX 01 00:00:00
FILE "08 - Ingo - Ready For Dis.wav" WAVE
  TRACK 08 AUDIO
    TITLE "Ready For Dis"
    PERFORMER "Ingo"
    INDEX 01 00:00:00
FILE "09 - Andy Farley - Out Of Control (Avis Van Rental Mix).wav" WAVE
  TRACK 09 AUDIO
    TITLE "Out Of Control (Avis Van Rental Mix)"
    PERFORMER "Andy Farley"
    INDEX 01 00:00:00
FILE "10 - Paul Glazby - Here We Go.wav" WAVE
  TRACK 10 AUDIO
    TITLE "Here We Go "
    PERFORMER "Paul Glazby"
    INDEX 01 00:00:00
FILE "11 - Vinylgroover And The Red hed - I Wanna Be Your Lover.wav" WAVE
  TRACK 11 AUDIO
    TITLE "I Wanna Be Your Lover"
    PERFORMER "Vinylgroover And The Red hed"
    INDEX 01 00:00:00
FILE "12 - Paul Glazby - Kick It.wav" WAVE
  TRACK 12 AUDIO
    TITLE "Kick It"
    PERFORMER "Paul Glazby"
    INDEX 01 00:00:00
FILE "13 - Flinch - Nocturnal (Phat Mix).wav" WAVE
  TRACK 13 AUDIO
    TITLE "Nocturnal (Phat Mix)"
    PERFORMER "Flinch"
    INDEX 01 00:00:00

Лог проверки качества

-----------------------------------------------------------
Started at: воскресенье, 07. 11. 2010. - 15:19.37
13 files found
01 -===- C:\Users\iKanako\Music\Various Artists  Vital Hard House - Mixed By Anne Savage\01 - Steve Johnson Vs Kreation - Locked In Time (Anne Savage Mix).flac
  Extracted successfully
  Conclusion: This track looks like CDDA with probability 100%
  Tempfile successfully deleted.
02 -===- C:\Users\iKanako\Music\Various Artists  Vital Hard House - Mixed By Anne Savage\02 - Bulletproof - Say Yeah (Original Mix).flac
  Extracted successfully
  Conclusion: This track looks like CDDA with probability 100%
  Tempfile successfully deleted.
03 -===- C:\Users\iKanako\Music\Various Artists  Vital Hard House - Mixed By Anne Savage\03 - John Whiteman - Trappy Lil's Madness (Ingo Mix).flac
  Extracted successfully
  Conclusion: This track looks like CDDA with probability 100%
  Tempfile successfully deleted.
04 -===- C:\Users\iKanako\Music\Various Artists  Vital Hard House - Mixed By Anne Savage\04 - Smokin' Bert Cooper - Getting Warm (Original Mix).flac
  Extracted successfully
  Conclusion: This track looks like CDDA with probability 100%
  Tempfile successfully deleted.
05 -===- C:\Users\iKanako\Music\Various Artists  Vital Hard House - Mixed By Anne Savage\05 - 666 - D.E.V.I.L. (BK Mix).flac
  Extracted successfully
  Conclusion: This track looks like CDDA with probability 100%
  Tempfile successfully deleted.
06 -===- C:\Users\iKanako\Music\Various Artists  Vital Hard House - Mixed By Anne Savage\06 - John Whiteman - Can't Beat The System (Ingo Remix).flac
  Extracted successfully
  Conclusion: This track looks like CDDA with probability 100%
  Tempfile successfully deleted.
07 -===- C:\Users\iKanako\Music\Various Artists  Vital Hard House - Mixed By Anne Savage\07 - DJ The Crow - The Crow -What You're Lookin'  (Savage And Lashes Vs Ingo).flac
  Extracted successfully
  Conclusion: This track looks like CDDA with probability 100%
  Tempfile successfully deleted.
08 -===- C:\Users\iKanako\Music\Various Artists  Vital Hard House - Mixed By Anne Savage\08 - Ingo - Ready For Dis.flac
  Extracted successfully
  Conclusion: This track looks like CDDA with probability 100%
  Tempfile successfully deleted.
09 -===- C:\Users\iKanako\Music\Various Artists  Vital Hard House - Mixed By Anne Savage\09 - Andy Farley - Out Of Control (Avis Van Rental Mix).flac
  Extracted successfully
  Conclusion: This track looks like CDDA with probability 99%
  Tempfile successfully deleted.
10 -===- C:\Users\iKanako\Music\Various Artists  Vital Hard House - Mixed By Anne Savage\10 - Paul Glazby - Here We Go.flac
  Extracted successfully
  Conclusion: This track looks like CDDA with probability 100%
  Tempfile successfully deleted.
11 -===- C:\Users\iKanako\Music\Various Artists  Vital Hard House - Mixed By Anne Savage\11 - Vinylgroover And The Red hed - I Wanna Be Your Lover.flac
  Extracted successfully
  Conclusion: This track looks like CDDA with probability 100%
  Tempfile successfully deleted.
12 -===- C:\Users\iKanako\Music\Various Artists  Vital Hard House - Mixed By Anne Savage\12 - Paul Glazby - Kick It.flac
  Extracted successfully
  Conclusion: This track looks like CDDA with probability 100%
  Tempfile successfully deleted.
13 -===- C:\Users\iKanako\Music\Various Artists  Vital Hard House - Mixed By Anne Savage\13 - Flinch - Nocturnal (Phat Mix).flac
  Extracted successfully
  Conclusion: This track looks like CDDA with probability 100%
  Tempfile successfully deleted.
Finished at: воскресенье, 07. 11. 2010. - 15:29.46 (operation time: 0:10.09)

[Цитировать]



Показать сообщения:    

Текущее время: 18-Янв 21:34

Часовой пояс: UTC + 6


Вы не можете начинать темы
Вы не можете отвечать на сообщения
Вы не можете редактировать свои сообщения
Вы не можете удалять свои сообщения
Вы не можете голосовать в опросах
Вы не можете прикреплять файлы к сообщениям
Вы не можете скачивать файлы

!ВНИМАНИЕ!
Сайт не предоставляет электронные версии произведений, а занимается лишь коллекционированием и каталогизацией ссылок, присылаемых и публикуемых на форуме нашими читателями. Если вы являетесь правообладателем какого-либо представленного материала и не желаете, чтобы ссылка на него находилась в нашем каталоге, свяжитесь с нами, и мы незамедлительно удалим ее. Файлы для обмена на трекере предоставлены пользователями сайта, и администрация не несет ответственности за их содержание. Просьба не заливать файлы, защищенные авторскими правами, а также файлы нелегального содержания!