***Уважаемые пользователи и гости !!! Сайт переехал на новый домен Torrents-club.info. Просьба изменить ваши закладки! ***
 
[ Сегодня идет свободное скачивание без начисления Download ]


Статистика раздачи
Нет
 
   
 
 
 
Мираж - 18 лет (2006) DVDRip- Год выпуска: 2006
Жанр: Концерт, Диско, Поп
Описание:
Легендарная диско-группа "Мираж" представила юбилейный концерт "18 лет" . 34 хита "Миража" в исполнении всех солисток коллектива: Н.Гулькиной, М.Суханкиной, Т.Овсиенко, С.Разиной, И.Салтыковой. Плюс к этому шлягеры "Миража" в исполнении звезд российской эстрады: группы "Технология", "Нэнси", "Восток", "Фристайл", "Маленький принц", А.Глызина, "Дюны" и Н.Сенчуковой, Фриды, А.Укупника, Натали. "Мираж" спустя "18 лет" замечательный подарок всем поклонникам этой легендарной и единственной в своем роде отечественной поп-группы! Уникальная возможность увидеть практически всех участников коллектива разных лет на одной сцене в одном шоу.
Продолжительность: 02:27:30
Видеокодек: Xvid
Битрейт видео: ~1122 kbps
Размер кадра: 688 x 384, (16:9)
Качество видео: DVDRip
Аудиокодек: AC3 2.0
Битрейт аудио: 192 kbps

Треклист:

Треклист:
001. Пролог (Балет "Дункан")
002. Эта ночь ("Мираж")
003. Брось ("Мираж")
004. Новый герой (С. Разина)
005. Миражи ("Восток", С. Разина, Р. Жуков)
006. Снова вместе ("Дюна", Н. Сенчукова)
007. Свечи ("МГК")
008. Видео (Шура)
009. Звезды нас ждут ("Диамант")
010. На белом покрывале января ("Сладкий сон")
011. Я люблю тебя (Натали)
012. Кроха (Дуэт "Фривэй")
013. Raga ("Playgirls")
014. Я живу тобой (Фрида)
015. Мосты ("Полиция нравов")
016. Безумный мир (Аркадий Укупник)
017. Эхо ("Мираж")
018. Пальчиком маня ("Мираж")
019. Я жду тебя ("Мираж")
020. Млечный путь ("Мираж")
021. Снежинка (Е. Болдышева, М. Суханкина, А. Горбашов)
022. Солнечное лето (Н. Гулькина)
023. Я не хочу (Н. Гулькина)
024. Просто мираж (Н. Гулькина, М. Суханкина)
025. Где я? (М. Суханкина, А. Горбашов)
026. Думай и мечтай (А. Глызин)
027. Прощай на веки ("Фристайл")
028. Дым сигарет с ментолом ("Нэнси")
029. Я снова вижу тебя (И. Салтыкова)
030. Прощай ("Маленький Принц")
031. Мы встретимся снова ("Маленький Принц")
032. Наступает ночь (Т. Овсиенко, "Мираж")
033. Я больше не прошу (Т. Овсиенко, "Мираж")
034. Музыка нас связала (все звезды концерта)

MediaInfo

Код:
Полное имя : Z:\Концерты\мираж.avi
Формат : AVI
Формат/Информация : Audio Video Interleave
Размер файла : 1,36 Гбайт
Продолжительность : 2 ч. 27 м.
Общий поток : 1323 Кбит/сек
Программа кодирования : FairUse Wizard - http://fairusewizard.com
Библиотека кодирования : The best and REALLY easy backup tool
Видео
Идентификатор : 0
Формат : MPEG-4 Visual
Профиль формата : Advanced Simple@L5
Параметр BVOP формата : 1
Параметр QPel формата : Нет
Параметр GMC формата : Без точки перехода
Параметр матрицы формата : Default (H.263)
Режим смешивания : Сжатый битовый поток
Идентификатор кодека : XVID
Идентификатор кодека/Подсказка : XviD
Продолжительность : 2 ч. 27 м.
Битрейт : 1122 Кбит/сек
Ширина : 688 пикселей
Высота : 384 пикселя
Соотношение сторон : 16:9
Частота кадров : 25,000 кадров/сек
Цветовое пространство : YUV
Субдискретизация насыщенности : 4:2:0
Битовая глубина : 8 бит
Тип развёртки : Прогрессивная
Метод сжатия : С потерями
Бит/(Пиксели*Кадры) : 0.170
Размер потока : 1,16 Гбайт (85%)
Библиотека кодирования : XviD 1.1.0 (UTC 2005-11-22)
Аудио
Идентификатор : 1
Формат : AC-3
Формат/Информация : Audio Coding 3
Расширение режима : CM (complete main)
Параметр Endianness формата : Big
Идентификатор кодека : 2000
Продолжительность : 2 ч. 27 м.
Вид битрейта : Постоянный
Битрейт : 192 Кбит/сек
Каналы : 2 канала
Расположение каналов : Front: L R
Частота : 48,0 КГц
Битовая глубина : 16 бит
Метод сжатия : С потерями
Размер потока : 203 Мбайт (15%)
Выравнивание : Разделение по промежуткам
Продолжительность промежутка : 40 мс. (1,00 видеокадр)
Время предзагрузки промежутка : 500 мс.
Скриншоты:



Последний раз редактировалось: ФиНик (2017-12-23 07:16), всего редактировалось 3 раз(а)

[Цитировать]

Офигенный концерт... всем советую для просмотра! (конечно на вкус и цвет..- товарищей нет) Мне очень понравился!

[Цитировать]



Показать сообщения:    

Текущее время: 23-Фев 09:40

Часовой пояс: UTC + 6


Вы не можете начинать темы
Вы не можете отвечать на сообщения
Вы не можете редактировать свои сообщения
Вы не можете удалять свои сообщения
Вы не можете голосовать в опросах
Вы не можете прикреплять файлы к сообщениям
Вы не можете скачивать файлы

!ВНИМАНИЕ!
Сайт не предоставляет электронные версии произведений, а занимается лишь коллекционированием и каталогизацией ссылок, присылаемых и публикуемых на форуме нашими читателями. Если вы являетесь правообладателем какого-либо представленного материала и не желаете, чтобы ссылка на него находилась в нашем каталоге, свяжитесь с нами, и мы незамедлительно удалим ее. Файлы для обмена на трекере предоставлены пользователями сайта, и администрация не несет ответственности за их содержание. Просьба не заливать файлы, защищенные авторскими правами, а также файлы нелегального содержания!