***Уважаемые пользователи и гости !!! Сайт переехал на новый домен Torrents-club.info. Просьба изменить ваши закладки! ***
 
[ Сегодня идет свободное скачивание без начисления Download ]


Статистика раздачи
Скачал: [ 1 ]
 
   
 
 
 
 
-Madonna - Rebel Heart Tour--
Год выпуска: 2016
Страна: USA
Жанр: Pop
Лейбл: USA | Live Nation Global Touring, Live Nation, York Studios
Режиссер: Nathan Rissman, Danny Tull
Продолжительность: 01:58:52
-Качество видео: Blu-Ray
Контейнер: BDMV
Стандарт разрешения: 1080i
Видео кодек: MPEG4 AVC
Аудио кодек: LPCM, DTS
Видео: 1920x1080, 29992 Mбит/сек, 29,970 кадров/сек, 16:9, High Profile 4.1
Аудио 1: LPCM, 1536 Кбит/сек, 2 каналa (Front: L R), 48,0 КГц, 16 bit
Аудио 2: DTS-HD Master Audio, 2808 Кбит/сек, 5,1 канал (Front: L C R, Side: L R, LFE), 48kHz/16-bit, (DTS Core: 5.1 / 48 kHz / 1536 kbps / 16-bit)
-

«Rebel Heart Tour» — десятый концертный тур американской певицы Мадонны в поддержку её тринадцатого студийного альбома Rebel Heart, вышедшего 6 марта 2015 года. Стоит отметить, что турне Мадонны всегда проходят на высшем техническом уровне, с сопровождением сложнейшей хореографии и, чаще всего, живым исполнением, Rebel Heart Tour не стал исключением. Первые даты тура Мадонна анонсировала 2 марта 2015 года. Изначально планировалось, что первое шоу состоится в Майами 29 августа 2015, но даты концертов в Майами, Атланте и Сан-Хуане были перенесены на январь 2016 года. Первое выступление состоялось в Монреале 9 сентября 2015 года. После тура по Северной Америке, певица продолжила выступления в Европе и Азии, завершив тур в марте 2016 года концертами в Новой Зеландии и Австралии. За 82 полностью распроданных шоу, которые в общей сложности посетили 1,045,479 зрителей, Rebel Heart Tour, собрал более $169,800,000. Более того, благодаря «Rebel Heart Tour», сборы с которого составили более $169,800,000, суммарная прибыль со всех туров Мадонны, начиная с 1990 года, превысила отметку в $1,300,000,000, что делает ее самым успешным гастролирующим сольным исполнителем в истории.
-

Трэклист


1. Iconic
2. Bitch I’m Madonna
3. Burning Up
4. Holy Water
5. Devil Pray
6. Messiah
7. Body Shop
8. True Blue
9. Deeper and Deeper
10. HeartBreakCity
11. Like a Virgin
12. S.E.X.
13. Living for Love (Remix)
14. La Isla Bonita
15. Dress You Up / Into The Groove / Lucky Star
16. Who’s That Girl
17. Rebel Heart
18. Illuminati
19. Music
20. Candy Shop
21. Material Girl
22. La Vie En Rose
23. Unapologetic Bitch
24. Holiday

Media Info

Общее
Идентификатор                            : 0 (0x0)
Полное имя                               : D:\Torrent Files\Madonna.Rebel.Heart.Tour.2016.COMPLETE.MBLURAY-MIDDLE\BDMV\STREAM\00000.m2ts
Формат                                   : BDAV
Формат/Информация                        : Blu-ray Video
Размер файла                             : 30,2 Гбайт
Продолжительность                        : 1 ч. 58 м.
Режим общего битрейта                    : Переменный
Общий поток                              : 36,4 Мбит/сек
Максимальный общий битрейт               : 48,0 Мбит/сек
Видео
Идентификатор                            : 4113 (0x1011)
Идентификатор меню                       : 1 (0x1)
Формат                                   : AVC
Формат/Информация                        : Advanced Video Codec
Профиль формата                          : High@L4.1
Параметр CABAC формата                   : Да
Параметр ReFrames формата                : 4 кадра
Идентификатор кодека                     : 27
Продолжительность                        : 1 ч. 58 м.
Вид битрейта                             : Переменный
Максимальный битрейт                     : 33,0 Мбит/сек
Ширина                                   : 1920 пикселей
Высота                                   : 1080 пикселей
Соотношение сторон                       : 16:9
Частота кадров                           : 29,970 (30000/1001) кадров/сек
Цветовое пространство                    : YUV
Субдискретизация насыщенности            : 4:2:0
Битовая глубина                          : 8 бит
Тип развёртки                            : MBAFF
Метод сохранения типа развёртки          : Чередующиеся поля
Порядок развёртки                        : Верхнее поле первое
Аудио #1
Идентификатор                            : 4352 (0x1100)
Идентификатор меню                       : 1 (0x1)
Формат                                   : PCM
Параметр Endianness формата              : Big
Параметр Sign формата                    : Signed
Режим смешивания                         : Blu-ray
Идентификатор кодека                     : 128
Продолжительность                        : 1 ч. 58 м.
Вид битрейта                             : Постоянный
Битрейт                                  : 1536 Кбит/сек
Каналы                                   : 2 канала
Расположение каналов                     : Front: L R
Частота                                  : 48,0 КГц
Битовая глубина                          : 16 бит
Размер потока                            : 1,28 Гбайт (4%)
Аудио #2
Идентификатор                            : 4353 (0x1101)
Идентификатор меню                       : 1 (0x1)
Формат                                   : DTS
Формат/Информация                        : Digital Theater Systems
Профиль формата                          : MA / Core
Режим                                    : 16
Параметр Endianness формата              : Big
Режим смешивания                         : Stream extension
Идентификатор кодека                     : 134
Продолжительность                        : 1 ч. 58 м.
Вид битрейта                             : Переменный / Постоянный
Битрейт                                  : Неизвестно / 1509 Кбит/сек
Каналы                                   : 6 каналов
Расположение каналов                     : Front: L C R, Side: L R, LFE
Частота                                  : 48,0 КГц
Частота кадров                           : 93,750 кадра/сек (512 spf)
Битовая глубина                          : 16 бит
Метод сжатия                             : Без потерь / Lossy

BDInfo:

Disc Title: Madonna.Rebel.Heart.Tour.2016.COMPLETE.MBLURAY-MIDDLE
Disc Size: 39 929 700 788 bytes
Protection: AACS
BD-Java: No
BDInfo: 0.5.8
Notes:
BDINFO HOME:
Cinema Squid
http://www.cinemasquid.com/blu-ray/tools/bdinfo
INCLUDES FORUMS REPORT FOR:
AVS Forum Blu-ray Audio and Video Specifications Thread
http://www.avsforum.com/avs-vb/showthread.php?t=1155731
********************
PLAYLIST: 00000.MPLS
********************
<--- BEGIN FORUMS PASTE --->
Total   Video
Title                                                           Codec   Length  Movie Size      Disc Size       Bitrate Bitrate Main Audio Track                          Secondary Audio Track
-----                                                           ------  ------- --------------  --------------  ------- ------- ------------------                        ---------------------
00000.MPLS                                                      AVC     1:58:52 32 435 576 832  39 929 700 788  36,38   29,99   LPCM 2.0 1536Kbps (48kHz/16-bit)          DTS-HD Master 5.1 2808Kbps (48kHz/16-bit)
DISC INFO:
Disc Title:     Madonna.Rebel.Heart.Tour.2016.COMPLETE.MBLURAY-MIDDLE
Disc Size:      39 929 700 788 bytes
Protection:     AACS
BD-Java:        No
BDInfo:         0.5.8
PLAYLIST REPORT:
Name:                   00000.MPLS
Length:                 1:58:52.024 (h:m:s.ms)
Size:                   32 435 576 832 bytes
Total Bitrate:          36,38 Mbps
VIDEO:
Codec                   Bitrate             Description
-----                   -------             -----------
MPEG-4 AVC Video        29992 kbps          1080i / 29,970 fps / 16:9 / High Profile 4.1
AUDIO:
Codec                           Language        Bitrate         Description
-----                           --------        -------         -----------
LPCM Audio                      English         1536 kbps       2.0 / 48 kHz / 1536 kbps / 16-bit
DTS-HD Master Audio             English         2808 kbps       5.1 / 48 kHz / 2808 kbps / 16-bit (DTS Core: 5.1 / 48 kHz / 1509 kbps / 16-bit)
FILES:
Name            Time In         Length          Size            Total Bitrate
----            -------         ------          ----            -------------
00000.M2TS      0:00:00.000     1:58:52.024     32 435 576 832  36 383
CHAPTERS:
Number          Time In         Length          Avg Video Rate  Max 1-Sec Rate  Max 1-Sec Time  Max 5-Sec Rate  Max 5-Sec Time  Max 10Sec Rate  Max 10Sec Time  Avg Frame Size  Max Frame Size  Max Frame Time
------          -------         ------          --------------  --------------  --------------  --------------  --------------  --------------  --------------  --------------  --------------  --------------
1               0:00:00.000     0:04:20.994     27 218 kbps     48 170 kbps     00:01:35.161    34 996 kbps     00:01:31.157    33 414 kbps     00:04:08.147    113 509 bytes   637 812 bytes   00:02:46.733
2               0:04:20.994     0:04:24.397     32 240 kbps     39 793 kbps     00:07:24.277    34 159 kbps     00:07:20.273    33 325 kbps     00:08:07.653    134 468 bytes   545 561 bytes   00:08:33.045
3               0:08:45.391     0:03:35.615     31 839 kbps     39 308 kbps     00:08:59.872    33 894 kbps     00:08:55.935    33 390 kbps     00:08:50.897    132 796 bytes   399 646 bytes   00:11:01.093
4               0:12:21.006     0:04:30.003     31 010 kbps     40 309 kbps     00:13:34.613    33 916 kbps     00:15:41.440    33 487 kbps     00:13:25.571    129 339 bytes   567 988 bytes   00:12:50.503
5               0:16:51.010     0:06:06.132     29 282 kbps     38 477 kbps     00:22:13.365    34 055 kbps     00:22:09.394    33 288 kbps     00:22:04.356    122 130 bytes   531 205 bytes   00:20:13.111
6               0:22:57.142     0:04:16.823     30 032 kbps     42 050 kbps     00:26:51.543    33 890 kbps     00:27:05.590    33 224 kbps     00:26:42.534    125 257 bytes   599 036 bytes   00:26:44.803
7               0:27:13.965     0:03:25.772     21 221 kbps     40 038 kbps     00:29:27.365    33 964 kbps     00:29:09.914    32 060 kbps     00:29:10.515    88 509 bytes    369 375 bytes   00:29:28.133
8               0:30:39.737     0:04:53.459     31 076 kbps     46 177 kbps     00:30:40.538    33 726 kbps     00:32:45.129    33 206 kbps     00:32:56.341    129 611 bytes   616 825 bytes   00:30:41.439
9               0:35:33.197     0:03:20.366     28 131 kbps     35 645 kbps     00:38:48.693    33 340 kbps     00:38:44.655    32 811 kbps     00:35:41.939    117 331 bytes   386 259 bytes   00:35:57.989
10              0:38:53.564     0:04:56.229     32 362 kbps     46 129 kbps     00:43:46.490    34 460 kbps     00:43:40.951    33 580 kbps     00:43:35.946    134 978 bytes   588 831 bytes   00:39:06.143
11              0:43:49.793     0:04:34.941     25 430 kbps     39 196 kbps     00:45:40.604    34 045 kbps     00:46:25.015    32 165 kbps     00:44:15.319    106 066 bytes   590 002 bytes   00:45:05.369
12              0:48:24.735     0:04:50.256     29 210 kbps     38 668 kbps     00:51:45.001    33 794 kbps     00:50:18.849    33 100 kbps     00:50:19.049    121 832 bytes   415 601 bytes   00:49:05.876
13              0:53:14.991     0:03:42.021     31 145 kbps     44 067 kbps     00:55:18.448    34 998 kbps     00:55:14.444    33 871 kbps     00:55:09.439    129 899 bytes   555 449 bytes   00:55:19.315
14              0:56:57.013     0:05:13.212     30 292 kbps     41 680 kbps     01:00:50.647    34 570 kbps     01:00:46.643    33 682 kbps     01:00:41.638    126 344 bytes   635 409 bytes   00:59:58.795
15              1:02:10.226     0:05:03.336     31 976 kbps     46 303 kbps     01:06:43.766    35 242 kbps     01:06:39.762    34 092 kbps     01:06:34.757    133 366 bytes   402 236 bytes   01:06:44.533
16              1:07:13.562     0:06:10.970     31 843 kbps     42 263 kbps     01:10:59.088    34 300 kbps     01:11:03.726    33 731 kbps     01:10:50.079    132 812 bytes   424 472 bytes   01:08:31.207
17              1:13:24.533     0:02:22.876     24 850 kbps     37 608 kbps     01:13:56.932    33 705 kbps     01:13:52.928    32 654 kbps     01:13:37.179    103 646 bytes   328 759 bytes   01:14:59.661
18              1:15:47.409     0:03:51.564     29 140 kbps     48 445 kbps     01:18:04.413    35 939 kbps     01:18:00.409    32 592 kbps     01:17:55.404    121 537 bytes   634 034 bytes   01:18:05.313
19              1:19:38.974     0:04:30.003     29 605 kbps     41 828 kbps     01:21:01.156    34 275 kbps     01:20:57.152    33 171 kbps     01:23:13.955    123 479 bytes   575 253 bytes   01:22:50.598
20              1:24:08.977     0:05:46.045     30 556 kbps     40 454 kbps     01:27:31.179    34 208 kbps     01:27:27.175    33 521 kbps     01:27:22.170    127 443 bytes   502 565 bytes   01:26:53.174
21              1:29:55.022     0:02:50.970     32 725 kbps     39 948 kbps     01:32:27.108    34 139 kbps     01:32:23.104    33 338 kbps     01:32:18.099    136 493 bytes   405 146 bytes   01:32:45.960
22              1:32:45.993     0:06:12.171     31 400 kbps     39 612 kbps     01:33:50.291    34 778 kbps     01:33:46.287    33 725 kbps     01:33:41.282    130 965 bytes   450 024 bytes   01:33:51.092
23              1:38:58.165     0:04:21.828     27 927 kbps     35 233 kbps     01:41:23.944    33 246 kbps     01:41:20.074    33 054 kbps     01:41:14.935    116 477 bytes   308 058 bytes   01:39:08.876
24              1:43:19.993     0:07:13.032     31 906 kbps     43 519 kbps     01:44:45.812    34 391 kbps     01:48:46.920    33 564 kbps     01:48:41.915    133 073 bytes   547 678 bytes   01:44:46.713
25              1:50:33.026     0:05:49.949     32 009 kbps     40 626 kbps     01:51:27.514    34 241 kbps     01:53:33.540    33 312 kbps     01:53:28.535    133 503 bytes   525 062 bytes   01:53:38.344
26              1:56:22.976     0:02:29.048     27 052 kbps     36 983 kbps     01:58:11.150    33 049 kbps     01:57:48.795    32 916 kbps     01:58:28.868    112 856 bytes   318 415 bytes   01:58:11.951
STREAM DIAGNOSTICS:
File            PID             Type            Codec           Language                Seconds                 Bitrate                 Bytes           Packets
----            ---             ----            -----           --------                --------------          --------------          -------------   -----
00000.M2TS      4113 (0x1011)   0x1B            AVC                                     7131,891                29 992                  26 737 906 091  145 441 673
00000.M2TS      4352 (0x1100)   0x80            LPCM            eng (English)           7131,891                1 542                   1 375 054 420   8 558 430
00000.M2TS      4353 (0x1101)   0x86            DTS-HD MA       eng (English)           7131,891                2 808                   2 503 237 984   14 696 239
<---- END FORUMS PASTE ---->
QUICK SUMMARY:
Disc Title: Madonna.Rebel.Heart.Tour.2016.COMPLETE.MBLURAY-MIDDLE
Disc Size: 39 929 700 788 bytes
Protection: AACS
BD-Java: No
Playlist: 00000.MPLS
Size: 32 435 576 832 bytes
Length: 1:58:52.024
Total Bitrate: 36,38 Mbps
Video: MPEG-4 AVC Video / 29992 kbps / 1080i / 29,970 fps / 16:9 / High Profile 4.1
Audio: English / LPCM Audio / 2.0 / 48 kHz / 1536 kbps / 16-bit
Audio: English / DTS-HD Master Audio / 5.1 / 48 kHz / 2808 kbps / 16-bit (DTS Core: 5.1 / 48 kHz / 1509 kbps / 16-bit)
********************
PLAYLIST: 00011.MPLS
********************
<--- BEGIN FORUMS PASTE --->
Total   Video
Title                                                           Codec   Length  Movie Size      Disc Size       Bitrate Bitrate Main Audio Track                          Secondary Audio Track
-----                                                           ------  ------- --------------  --------------  ------- ------- ------------------                        ---------------------
00011.MPLS                                                      AVC     1:58:52 32 435 576 832  39 929 700 788  36,38   29,99   LPCM 2.0 1536Kbps (48kHz/16-bit)          DTS-HD Master 5.1 2808Kbps (48kHz/16-bit)
DISC INFO:
Disc Title:     Madonna.Rebel.Heart.Tour.2016.COMPLETE.MBLURAY-MIDDLE
Disc Size:      39 929 700 788 bytes
Protection:     AACS
BD-Java:        No
BDInfo:         0.5.8
PLAYLIST REPORT:
Name:                   00011.MPLS
Length:                 1:58:52.024 (h:m:s.ms)
Size:                   32 435 576 832 bytes
Total Bitrate:          36,38 Mbps
VIDEO:
Codec                   Bitrate             Description
-----                   -------             -----------
MPEG-4 AVC Video        29992 kbps          1080i / 29,970 fps / 16:9 / High Profile 4.1
AUDIO:
Codec                           Language        Bitrate         Description
-----                           --------        -------         -----------
LPCM Audio                      English         1536 kbps       2.0 / 48 kHz / 1536 kbps / 16-bit
DTS-HD Master Audio             English         2808 kbps       5.1 / 48 kHz / 2808 kbps / 16-bit (DTS Core: 5.1 / 48 kHz / 1509 kbps / 16-bit)
FILES:
Name            Time In         Length          Size            Total Bitrate
----            -------         ------          ----            -------------
00000.M2TS      0:00:00.000     1:58:52.024     32 435 576 832  36 383
CHAPTERS:
Number          Time In         Length          Avg Video Rate  Max 1-Sec Rate  Max 1-Sec Time  Max 5-Sec Rate  Max 5-Sec Time  Max 10Sec Rate  Max 10Sec Time  Avg Frame Size  Max Frame Size  Max Frame Time
------          -------         ------          --------------  --------------  --------------  --------------  --------------  --------------  --------------  --------------  --------------  --------------
1               0:00:00.000     0:04:20.994     27 218 kbps     48 170 kbps     00:01:35.161    34 996 kbps     00:01:31.157    33 414 kbps     00:04:08.147    113 509 bytes   637 812 bytes   00:02:46.733
2               0:04:20.994     0:04:24.397     32 240 kbps     39 793 kbps     00:07:24.277    34 159 kbps     00:07:20.273    33 325 kbps     00:08:07.653    134 468 bytes   545 561 bytes   00:08:33.045
3               0:08:45.391     0:03:35.615     31 839 kbps     39 308 kbps     00:08:59.872    33 894 kbps     00:08:55.935    33 390 kbps     00:08:50.897    132 796 bytes   399 646 bytes   00:11:01.093
4               0:12:21.006     0:04:30.003     31 010 kbps     40 309 kbps     00:13:34.613    33 916 kbps     00:15:41.440    33 487 kbps     00:13:25.571    129 339 bytes   567 988 bytes   00:12:50.503
5               0:16:51.010     0:06:06.132     29 282 kbps     38 477 kbps     00:22:13.365    34 055 kbps     00:22:09.394    33 288 kbps     00:22:04.356    122 130 bytes   531 205 bytes   00:20:13.111
6               0:22:57.142     0:04:16.823     30 032 kbps     42 050 kbps     00:26:51.543    33 890 kbps     00:27:05.590    33 224 kbps     00:26:42.534    125 257 bytes   599 036 bytes   00:26:44.803
7               0:27:13.965     0:03:25.772     21 221 kbps     40 038 kbps     00:29:27.365    33 964 kbps     00:29:09.914    32 060 kbps     00:29:10.515    88 509 bytes    369 375 bytes   00:29:28.133
8               0:30:39.737     0:04:53.459     31 076 kbps     46 177 kbps     00:30:40.538    33 726 kbps     00:32:45.129    33 206 kbps     00:32:56.341    129 611 bytes   616 825 bytes   00:30:41.439
9               0:35:33.197     0:03:20.366     28 131 kbps     35 645 kbps     00:38:48.693    33 340 kbps     00:38:44.655    32 811 kbps     00:35:41.939    117 331 bytes   386 259 bytes   00:35:57.989
10              0:38:53.564     0:04:56.229     32 362 kbps     46 129 kbps     00:43:46.490    34 460 kbps     00:43:40.951    33 580 kbps     00:43:35.946    134 978 bytes   588 831 bytes   00:39:06.143
11              0:43:49.793     0:04:34.941     25 430 kbps     39 196 kbps     00:45:40.604    34 045 kbps     00:46:25.015    32 165 kbps     00:44:15.319    106 066 bytes   590 002 bytes   00:45:05.369
12              0:48:24.735     0:04:50.256     29 210 kbps     38 668 kbps     00:51:45.001    33 794 kbps     00:50:18.849    33 100 kbps     00:50:19.049    121 832 bytes   415 601 bytes   00:49:05.876
13              0:53:14.991     0:03:42.021     31 145 kbps     44 067 kbps     00:55:18.448    34 998 kbps     00:55:14.444    33 871 kbps     00:55:09.439    129 899 bytes   555 449 bytes   00:55:19.315
14              0:56:57.013     0:05:13.212     30 292 kbps     41 680 kbps     01:00:50.647    34 570 kbps     01:00:46.643    33 682 kbps     01:00:41.638    126 344 bytes   635 409 bytes   00:59:58.795
15              1:02:10.226     0:05:03.336     31 976 kbps     46 303 kbps     01:06:43.766    35 242 kbps     01:06:39.762    34 092 kbps     01:06:34.757    133 366 bytes   402 236 bytes   01:06:44.533
16              1:07:13.562     0:06:10.970     31 843 kbps     42 263 kbps     01:10:59.088    34 300 kbps     01:11:03.726    33 731 kbps     01:10:50.079    132 812 bytes   424 472 bytes   01:08:31.207
17              1:13:24.533     0:02:22.876     24 850 kbps     37 608 kbps     01:13:56.932    33 705 kbps     01:13:52.928    32 654 kbps     01:13:37.179    103 646 bytes   328 759 bytes   01:14:59.661
18              1:15:47.409     0:03:51.564     29 140 kbps     48 445 kbps     01:18:04.413    35 939 kbps     01:18:00.409    32 592 kbps     01:17:55.404    121 537 bytes   634 034 bytes   01:18:05.313
19              1:19:38.974     0:04:30.003     29 605 kbps     41 828 kbps     01:21:01.156    34 275 kbps     01:20:57.152    33 171 kbps     01:23:13.955    123 479 bytes   575 253 bytes   01:22:50.598
20              1:24:08.977     0:05:46.045     30 556 kbps     40 454 kbps     01:27:31.179    34 208 kbps     01:27:27.175    33 521 kbps     01:27:22.170    127 443 bytes   502 565 bytes   01:26:53.174
21              1:29:55.022     0:02:50.970     32 725 kbps     39 948 kbps     01:32:27.108    34 139 kbps     01:32:23.104    33 338 kbps     01:32:18.099    136 493 bytes   405 146 bytes   01:32:45.960
22              1:32:45.993     0:06:11.838     31 408 kbps     39 612 kbps     01:33:50.291    34 778 kbps     01:33:46.287    33 725 kbps     01:33:41.282    130 998 bytes   450 024 bytes   01:33:51.092
23              1:38:57.831     0:04:22.161     27 920 kbps     35 233 kbps     01:41:23.944    33 246 kbps     01:41:20.074    33 054 kbps     01:41:14.935    116 448 bytes   308 058 bytes   01:39:08.876
24              1:43:19.993     0:07:13.032     31 906 kbps     43 519 kbps     01:44:45.812    34 391 kbps     01:48:46.920    33 564 kbps     01:48:41.915    133 073 bytes   547 678 bytes   01:44:46.713
25              1:50:33.026     0:05:49.949     32 009 kbps     40 626 kbps     01:51:27.514    34 241 kbps     01:53:33.540    33 312 kbps     01:53:28.535    133 503 bytes   525 062 bytes   01:53:38.344
26              1:56:22.976     0:02:29.048     27 052 kbps     36 983 kbps     01:58:11.150    33 049 kbps     01:57:48.795    32 916 kbps     01:58:28.868    112 856 bytes   318 415 bytes   01:58:11.951
STREAM DIAGNOSTICS:
File            PID             Type            Codec           Language                Seconds                 Bitrate                 Bytes           Packets
----            ---             ----            -----           --------                --------------          --------------          -------------   -----
00000.M2TS      4113 (0x1011)   0x1B            AVC                                     7131,891                29 992                  26 737 906 091  145 441 673
00000.M2TS      4352 (0x1100)   0x80            LPCM            eng (English)           7131,891                1 542                   1 375 054 420   8 558 430
00000.M2TS      4353 (0x1101)   0x86            DTS-HD MA       eng (English)           7131,891                2 808                   2 503 237 984   14 696 239
<---- END FORUMS PASTE ---->
QUICK SUMMARY:
Disc Title: Madonna.Rebel.Heart.Tour.2016.COMPLETE.MBLURAY-MIDDLE
Disc Size: 39 929 700 788 bytes
Protection: AACS
BD-Java: No
Playlist: 00011.MPLS
Size: 32 435 576 832 bytes
Length: 1:58:52.024
Total Bitrate: 36,38 Mbps
Video: MPEG-4 AVC Video / 29992 kbps / 1080i / 29,970 fps / 16:9 / High Profile 4.1
Audio: English / LPCM Audio / 2.0 / 48 kHz / 1536 kbps / 16-bit
Audio: English / DTS-HD Master Audio / 5.1 / 48 kHz / 2808 kbps / 16-bit (DTS Core: 5.1 / 48 kHz / 1509 kbps / 16-bit)
********************
PLAYLIST: 00012.MPLS
********************
<--- BEGIN FORUMS PASTE --->
Total   Video
Title                                                           Codec   Length  Movie Size      Disc Size       Bitrate Bitrate Main Audio Track                          Secondary Audio Track
-----                                                           ------  ------- --------------  --------------  ------- ------- ------------------                        ---------------------
00012.MPLS                                                      AVC     0:14:56 4 065 798 144   39 929 700 788  36,30   29,90   LPCM 2.0 1536Kbps (48kHz/16-bit)          DTS-HD Master 5.1 2618Kbps (48kHz/16-bit)
DISC INFO:
Disc Title:     Madonna.Rebel.Heart.Tour.2016.COMPLETE.MBLURAY-MIDDLE
Disc Size:      39 929 700 788 bytes
Protection:     AACS
BD-Java:        No
BDInfo:         0.5.8
PLAYLIST REPORT:
Name:                   00012.MPLS
Length:                 0:14:56.161 (h:m:s.ms)
Size:                   4 065 798 144 bytes
Total Bitrate:          36,30 Mbps
VIDEO:
Codec                   Bitrate             Description
-----                   -------             -----------
MPEG-4 AVC Video        29904 kbps          1080i / 29,970 fps / 16:9 / High Profile 4.1
AUDIO:
Codec                           Language        Bitrate         Description
-----                           --------        -------         -----------
LPCM Audio                      English         1536 kbps       2.0 / 48 kHz / 1536 kbps / 16-bit
DTS-HD Master Audio             English         2618 kbps       5.1 / 48 kHz / 2618 kbps / 16-bit (DTS Core: 5.1 / 48 kHz / 1509 kbps / 16-bit)
SUBTITLES:
Codec                           Language        Bitrate         Description
-----                           --------        -------         -----------
Presentation Graphics           English         25,384 kbps
Presentation Graphics           German          22,409 kbps
Presentation Graphics           Spanish         21,272 kbps
Presentation Graphics           French          25,541 kbps
Presentation Graphics           Italian         24,629 kbps
Presentation Graphics           Dutch           24,378 kbps
Presentation Graphics           Portuguese      21,903 kbps
Presentation Graphics           Swedish         21,151 kbps
FILES:
Name            Time In         Length          Size            Total Bitrate
----            -------         ------          ----            -------------
00016.M2TS      0:00:00.000     0:14:56.161     4 065 798 144   36 295
CHAPTERS:
Number          Time In         Length          Avg Video Rate  Max 1-Sec Rate  Max 1-Sec Time  Max 5-Sec Rate  Max 5-Sec Time  Max 10Sec Rate  Max 10Sec Time  Avg Frame Size  Max Frame Size  Max Frame Time
------          -------         ------          --------------  --------------  --------------  --------------  --------------  --------------  --------------  --------------  --------------  --------------
1               0:00:00.000     0:14:56.161     29 904 kbps     41 217 kbps     00:14:51.957    34 359 kbps     00:14:47.953    33 416 kbps     00:12:50.002    124 724 bytes   348 821 bytes   00:05:34.534
STREAM DIAGNOSTICS:
File            PID             Type            Codec           Language                Seconds                 Bitrate                 Bytes           Packets
----            ---             ----            -----           --------                --------------          --------------          -------------   -----
00016.M2TS      4113 (0x1011)   0x1B            AVC                                     896,028                 29 908                  3 349 841 282   18 221 297
00016.M2TS      4352 (0x1100)   0x80            LPCM            eng (English)           896,028                 1 543                   172 780 612     1 075 398
00016.M2TS      4353 (0x1101)   0x86            DTS-HD MA       eng (English)           896,028                 2 618                   293 226 608     1 728 119
00016.M2TS      4608 (0x1200)   0x90            PGS             eng (English)           896,028                 25                      2 843 548       16 424
00016.M2TS      4609 (0x1201)   0x90            PGS             deu (German)            896,028                 22                      2 510 269       14 620
00016.M2TS      4610 (0x1202)   0x90            PGS             spa (Spanish)           896,028                 21                      2 382 894       13 814
00016.M2TS      4611 (0x1203)   0x90            PGS             fra (French)            896,028                 26                      2 861 090       16 572
00016.M2TS      4612 (0x1204)   0x90            PGS             ita (Italian)           896,028                 25                      2 758 938       15 975
00016.M2TS      4613 (0x1205)   0x90            PGS             nld (Dutch)             896,028                 24                      2 730 831       15 767
00016.M2TS      4614 (0x1206)   0x90            PGS             por (Portuguese)        896,028                 22                      2 453 604       14 302
00016.M2TS      4615 (0x1207)   0x90            PGS             swe (Swedish)           896,028                 21                      2 369 351       13 681
<---- END FORUMS PASTE ---->
QUICK SUMMARY:
Disc Title: Madonna.Rebel.Heart.Tour.2016.COMPLETE.MBLURAY-MIDDLE
Disc Size: 39 929 700 788 bytes
Protection: AACS
BD-Java: No
Playlist: 00012.MPLS
Size: 4 065 798 144 bytes
Length: 0:14:56.161
Total Bitrate: 36,30 Mbps
Video: MPEG-4 AVC Video / 29904 kbps / 1080i / 29,970 fps / 16:9 / High Profile 4.1
Audio: English / LPCM Audio / 2.0 / 48 kHz / 1536 kbps / 16-bit
Audio: English / DTS-HD Master Audio / 5.1 / 48 kHz / 2618 kbps / 16-bit (DTS Core: 5.1 / 48 kHz / 1509 kbps / 16-bit)
Subtitle: English / 25,384 kbps
Subtitle: German / 22,409 kbps
Subtitle: Spanish / 21,272 kbps
Subtitle: French / 25,541 kbps
Subtitle: Italian / 24,629 kbps
Subtitle: Dutch / 24,378 kbps
Subtitle: Portuguese / 21,903 kbps
Subtitle: Swedish / 21,151 kbps
********************
PLAYLIST: 00013.MPLS
********************
<--- BEGIN FORUMS PASTE --->
Total   Video
Title                                                           Codec   Length  Movie Size      Disc Size       Bitrate Bitrate Main Audio Track                          Secondary Audio Track
-----                                                           ------  ------- --------------  --------------  ------- ------- ------------------                        ---------------------
00013.MPLS                                                      AVC     0:14:56 4 065 798 144   39 929 700 788  36,30   29,90   LPCM 2.0 1536Kbps (48kHz/16-bit)          DTS-HD Master 5.1 2618Kbps (48kHz/16-bit)
DISC INFO:
Disc Title:     Madonna.Rebel.Heart.Tour.2016.COMPLETE.MBLURAY-MIDDLE
Disc Size:      39 929 700 788 bytes
Protection:     AACS
BD-Java:        No
BDInfo:         0.5.8
PLAYLIST REPORT:
Name:                   00013.MPLS
Length:                 0:14:56.161 (h:m:s.ms)
Size:                   4 065 798 144 bytes
Total Bitrate:          36,30 Mbps
VIDEO:
Codec                   Bitrate             Description
-----                   -------             -----------
MPEG-4 AVC Video        29904 kbps          1080i / 29,970 fps / 16:9 / High Profile 4.1
AUDIO:
Codec                           Language        Bitrate         Description
-----                           --------        -------         -----------
LPCM Audio                      English         1536 kbps       2.0 / 48 kHz / 1536 kbps / 16-bit
DTS-HD Master Audio             English         2618 kbps       5.1 / 48 kHz / 2618 kbps / 16-bit (DTS Core: 5.1 / 48 kHz / 1509 kbps / 16-bit)
SUBTITLES:
Codec                           Language        Bitrate         Description
-----                           --------        -------         -----------
Presentation Graphics           English         25,384 kbps
Presentation Graphics           German          22,409 kbps
Presentation Graphics           Spanish         21,272 kbps
Presentation Graphics           French          25,541 kbps
Presentation Graphics           Italian         24,629 kbps
Presentation Graphics           Dutch           24,378 kbps
Presentation Graphics           Portuguese      21,903 kbps
Presentation Graphics           Swedish         21,151 kbps
FILES:
Name            Time In         Length          Size            Total Bitrate
----            -------         ------          ----            -------------
00016.M2TS      0:00:00.000     0:14:56.161     4 065 798 144   36 295
CHAPTERS:
Number          Time In         Length          Avg Video Rate  Max 1-Sec Rate  Max 1-Sec Time  Max 5-Sec Rate  Max 5-Sec Time  Max 10Sec Rate  Max 10Sec Time  Avg Frame Size  Max Frame Size  Max Frame Time
------          -------         ------          --------------  --------------  --------------  --------------  --------------  --------------  --------------  --------------  --------------  --------------
1               0:00:00.000     0:14:56.161     29 904 kbps     41 217 kbps     00:14:51.957    34 359 kbps     00:14:47.953    33 416 kbps     00:12:50.002    124 724 bytes   348 821 bytes   00:05:34.534
STREAM DIAGNOSTICS:
File            PID             Type            Codec           Language                Seconds                 Bitrate                 Bytes           Packets
----            ---             ----            -----           --------                --------------          --------------          -------------   -----
00016.M2TS      4113 (0x1011)   0x1B            AVC                                     896,028                 29 908                  3 349 841 282   18 221 297
00016.M2TS      4352 (0x1100)   0x80            LPCM            eng (English)           896,028                 1 543                   172 780 612     1 075 398
00016.M2TS      4353 (0x1101)   0x86            DTS-HD MA       eng (English)           896,028                 2 618                   293 226 608     1 728 119
00016.M2TS      4608 (0x1200)   0x90            PGS             eng (English)           896,028                 25                      2 843 548       16 424
00016.M2TS      4609 (0x1201)   0x90            PGS             deu (German)            896,028                 22                      2 510 269       14 620
00016.M2TS      4610 (0x1202)   0x90            PGS             spa (Spanish)           896,028                 21                      2 382 894       13 814
00016.M2TS      4611 (0x1203)   0x90            PGS             fra (French)            896,028                 26                      2 861 090       16 572
00016.M2TS      4612 (0x1204)   0x90            PGS             ita (Italian)           896,028                 25                      2 758 938       15 975
00016.M2TS      4613 (0x1205)   0x90            PGS             nld (Dutch)             896,028                 24                      2 730 831       15 767
00016.M2TS      4614 (0x1206)   0x90            PGS             por (Portuguese)        896,028                 22                      2 453 604       14 302
00016.M2TS      4615 (0x1207)   0x90            PGS             swe (Swedish)           896,028                 21                      2 369 351       13 681
<---- END FORUMS PASTE ---->
QUICK SUMMARY:
Disc Title: Madonna.Rebel.Heart.Tour.2016.COMPLETE.MBLURAY-MIDDLE
Disc Size: 39 929 700 788 bytes
Protection: AACS
BD-Java: No
Playlist: 00013.MPLS
Size: 4 065 798 144 bytes
Length: 0:14:56.161
Total Bitrate: 36,30 Mbps
Video: MPEG-4 AVC Video / 29904 kbps / 1080i / 29,970 fps / 16:9 / High Profile 4.1
Audio: English / LPCM Audio / 2.0 / 48 kHz / 1536 kbps / 16-bit
Audio: English / DTS-HD Master Audio / 5.1 / 48 kHz / 2618 kbps / 16-bit (DTS Core: 5.1 / 48 kHz / 1509 kbps / 16-bit)
Subtitle: English / 25,384 kbps
Subtitle: German / 22,409 kbps
Subtitle: Spanish / 21,272 kbps
Subtitle: French / 25,541 kbps
Subtitle: Italian / 24,629 kbps
Subtitle: Dutch / 24,378 kbps
Subtitle: Portuguese / 21,903 kbps
Subtitle: Swedish / 21,151 kbps
********************
PLAYLIST: 00014.MPLS
********************
<--- BEGIN FORUMS PASTE --->
Total   Video
Title                                                           Codec   Length  Movie Size      Disc Size       Bitrate Bitrate Main Audio Track                          Secondary Audio Track
-----                                                           ------  ------- --------------  --------------  ------- ------- ------------------                        ---------------------
00014.MPLS                                                      AVC     0:04:39 1 265 553 408   39 929 700 788  36,25   29,97   LPCM 2.0 1536Kbps (48kHz/16-bit)          DTS-HD Master 5.1 2712Kbps (48kHz/16-bit)
DISC INFO:
Disc Title:     Madonna.Rebel.Heart.Tour.2016.COMPLETE.MBLURAY-MIDDLE
Disc Size:      39 929 700 788 bytes
Protection:     AACS
BD-Java:        No
BDInfo:         0.5.8
PLAYLIST REPORT:
Name:                   00014.MPLS
Length:                 0:04:39.279 (h:m:s.ms)
Size:                   1 265 553 408 bytes
Total Bitrate:          36,25 Mbps
VIDEO:
Codec                   Bitrate             Description
-----                   -------             -----------
MPEG-4 AVC Video        29972 kbps          1080i / 29,970 fps / 16:9 / High Profile 4.1
AUDIO:
Codec                           Language        Bitrate         Description
-----                           --------        -------         -----------
LPCM Audio                      English         1536 kbps       2.0 / 48 kHz / 1536 kbps / 16-bit
DTS-HD Master Audio             English         2712 kbps       5.1 / 48 kHz / 2712 kbps / 16-bit (DTS Core: 5.1 / 48 kHz / 1509 kbps / 16-bit)
FILES:
Name            Time In         Length          Size            Total Bitrate
----            -------         ------          ----            -------------
00017.M2TS      0:00:00.000     0:04:39.279     1 265 553 408   36 252
CHAPTERS:
Number          Time In         Length          Avg Video Rate  Max 1-Sec Rate  Max 1-Sec Time  Max 5-Sec Rate  Max 5-Sec Time  Max 10Sec Rate  Max 10Sec Time  Avg Frame Size  Max Frame Size  Max Frame Time
------          -------         ------          --------------  --------------  --------------  --------------  --------------  --------------  --------------  --------------  --------------  --------------
1               0:00:00.000     0:04:39.279     29 972 kbps     38 683 kbps     00:03:50.096    33 912 kbps     00:03:46.092    33 212 kbps     00:03:41.087    125 010 bytes   580 105 bytes   00:03:43.022
STREAM DIAGNOSTICS:
File            PID             Type            Codec           Language                Seconds                 Bitrate                 Bytes           Packets
----            ---             ----            -----           --------                --------------          --------------          -------------   -----
00017.M2TS      4113 (0x1011)   0x1B            AVC                                     279,146                 29 987                  1 046 333 106   5 691 549
00017.M2TS      4352 (0x1100)   0x80            LPCM            eng (English)           279,146                 1 543                   53 845 184      335 136
00017.M2TS      4353 (0x1101)   0x86            DTS-HD MA       eng (English)           279,146                 2 713                   94 659 892      555 347
<---- END FORUMS PASTE ---->
QUICK SUMMARY:
Disc Title: Madonna.Rebel.Heart.Tour.2016.COMPLETE.MBLURAY-MIDDLE
Disc Size: 39 929 700 788 bytes
Protection: AACS
BD-Java: No
Playlist: 00014.MPLS
Size: 1 265 553 408 bytes
Length: 0:04:39.279
Total Bitrate: 36,25 Mbps
Video: MPEG-4 AVC Video / 29972 kbps / 1080i / 29,970 fps / 16:9 / High Profile 4.1
Audio: English / LPCM Audio / 2.0 / 48 kHz / 1536 kbps / 16-bit
Audio: English / DTS-HD Master Audio / 5.1 / 48 kHz / 2712 kbps / 16-bit (DTS Core: 5.1 / 48 kHz / 1509 kbps / 16-bit)
********************
PLAYLIST: 00017.MPLS
********************
<--- BEGIN FORUMS PASTE --->
Total   Video
Title                                                           Codec   Length  Movie Size      Disc Size       Bitrate Bitrate Main Audio Track                          Secondary Audio Track
-----                                                           ------  ------- --------------  --------------  ------- ------- ------------------                        ---------------------
00017.MPLS                                                      AVC     0:04:39 1 265 553 408   39 929 700 788  36,25   29,97   LPCM 2.0 1536Kbps (48kHz/16-bit)          DTS-HD Master 5.1 2712Kbps (48kHz/16-bit)
DISC INFO:
Disc Title:     Madonna.Rebel.Heart.Tour.2016.COMPLETE.MBLURAY-MIDDLE
Disc Size:      39 929 700 788 bytes
Protection:     AACS
BD-Java:        No
BDInfo:         0.5.8
PLAYLIST REPORT:
Name:                   00017.MPLS
Length:                 0:04:39.279 (h:m:s.ms)
Size:                   1 265 553 408 bytes
Total Bitrate:          36,25 Mbps
VIDEO:
Codec                   Bitrate             Description
-----                   -------             -----------
MPEG-4 AVC Video        29972 kbps          1080i / 29,970 fps / 16:9 / High Profile 4.1
AUDIO:
Codec                           Language        Bitrate         Description
-----                           --------        -------         -----------
LPCM Audio                      English         1536 kbps       2.0 / 48 kHz / 1536 kbps / 16-bit
DTS-HD Master Audio             English         2712 kbps       5.1 / 48 kHz / 2712 kbps / 16-bit (DTS Core: 5.1 / 48 kHz / 1509 kbps / 16-bit)
FILES:
Name            Time In         Length          Size            Total Bitrate
----            -------         ------          ----            -------------
00017.M2TS      0:00:00.000     0:04:39.279     1 265 553 408   36 252
CHAPTERS:
Number          Time In         Length          Avg Video Rate  Max 1-Sec Rate  Max 1-Sec Time  Max 5-Sec Rate  Max 5-Sec Time  Max 10Sec Rate  Max 10Sec Time  Avg Frame Size  Max Frame Size  Max Frame Time
------          -------         ------          --------------  --------------  --------------  --------------  --------------  --------------  --------------  --------------  --------------  --------------
1               0:00:00.000     0:04:39.279     29 972 kbps     38 683 kbps     00:03:50.096    33 912 kbps     00:03:46.092    33 212 kbps     00:03:41.087    125 010 bytes   580 105 bytes   00:03:43.022
STREAM DIAGNOSTICS:
File            PID             Type            Codec           Language                Seconds                 Bitrate                 Bytes           Packets
----            ---             ----            -----           --------                --------------          --------------          -------------   -----
00017.M2TS      4113 (0x1011)   0x1B            AVC                                     279,146                 29 987                  1 046 333 106   5 691 549
00017.M2TS      4352 (0x1100)   0x80            LPCM            eng (English)           279,146                 1 543                   53 845 184      335 136
00017.M2TS      4353 (0x1101)   0x86            DTS-HD MA       eng (English)           279,146                 2 713                   94 659 892      555 347
<---- END FORUMS PASTE ---->
QUICK SUMMARY:
Disc Title: Madonna.Rebel.Heart.Tour.2016.COMPLETE.MBLURAY-MIDDLE
Disc Size: 39 929 700 788 bytes
Protection: AACS
BD-Java: No
Playlist: 00017.MPLS
Size: 1 265 553 408 bytes
Length: 0:04:39.279
Total Bitrate: 36,25 Mbps
Video: MPEG-4 AVC Video / 29972 kbps / 1080i / 29,970 fps / 16:9 / High Profile 4.1
Audio: English / LPCM Audio / 2.0 / 48 kHz / 1536 kbps / 16-bit
Audio: English / DTS-HD Master Audio / 5.1 / 48 kHz / 2712 kbps / 16-bit (DTS Core: 5.1 / 48 kHz / 1509 kbps / 16-bit)
********************
PLAYLIST: 00015.MPLS
********************
<--- BEGIN FORUMS PASTE --->
Total   Video
Title                                                           Codec   Length  Movie Size      Disc Size       Bitrate Bitrate Main Audio Track                          Secondary Audio Track
-----                                                           ------  ------- --------------  --------------  ------- ------- ------------------                        ---------------------
00015.MPLS                                                      AVC     0:04:39 1 265 553 408   39 929 700 788  36,25   29,97   LPCM 2.0 1536Kbps (48kHz/16-bit)          DTS-HD Master 5.1 2712Kbps (48kHz/16-bit)
DISC INFO:
Disc Title:     Madonna.Rebel.Heart.Tour.2016.COMPLETE.MBLURAY-MIDDLE
Disc Size:      39 929 700 788 bytes
Protection:     AACS
BD-Java:        No
BDInfo:         0.5.8
PLAYLIST REPORT:
Name:                   00015.MPLS
Length:                 0:04:39.279 (h:m:s.ms)
Size:                   1 265 553 408 bytes
Total Bitrate:          36,25 Mbps
VIDEO:
Codec                   Bitrate             Description
-----                   -------             -----------
MPEG-4 AVC Video        29972 kbps          1080i / 29,970 fps / 16:9 / High Profile 4.1
AUDIO:
Codec                           Language        Bitrate         Description
-----                           --------        -------         -----------
LPCM Audio                      English         1536 kbps       2.0 / 48 kHz / 1536 kbps / 16-bit
DTS-HD Master Audio             English         2712 kbps       5.1 / 48 kHz / 2712 kbps / 16-bit (DTS Core: 5.1 / 48 kHz / 1509 kbps / 16-bit)
FILES:
Name            Time In         Length          Size            Total Bitrate
----            -------         ------          ----            -------------
00018.M2TS      0:00:00.000     0:04:39.279     1 265 553 408   36 252
CHAPTERS:
Number          Time In         Length          Avg Video Rate  Max 1-Sec Rate  Max 1-Sec Time  Max 5-Sec Rate  Max 5-Sec Time  Max 10Sec Rate  Max 10Sec Time  Avg Frame Size  Max Frame Size  Max Frame Time
------          -------         ------          --------------  --------------  --------------  --------------  --------------  --------------  --------------  --------------  --------------  --------------
1               0:00:00.000     0:04:39.279     29 972 kbps     38 683 kbps     00:03:50.096    33 912 kbps     00:03:46.092    33 212 kbps     00:03:41.087    125 010 bytes   580 105 bytes   00:03:43.022
STREAM DIAGNOSTICS:
File            PID             Type            Codec           Language                Seconds                 Bitrate                 Bytes           Packets
----            ---             ----            -----           --------                --------------          --------------          -------------   -----
00018.M2TS      4113 (0x1011)   0x1B            AVC                                     279,146                 29 987                  1 046 333 106   5 691 549
00018.M2TS      4352 (0x1100)   0x80            LPCM            eng (English)           279,146                 1 543                   53 845 184      335 136
00018.M2TS      4353 (0x1101)   0x86            DTS-HD MA       eng (English)           279,146                 2 713                   94 659 892      555 347
<---- END FORUMS PASTE ---->
QUICK SUMMARY:
Disc Title: Madonna.Rebel.Heart.Tour.2016.COMPLETE.MBLURAY-MIDDLE
Disc Size: 39 929 700 788 bytes
Protection: AACS
BD-Java: No
Playlist: 00015.MPLS
Size: 1 265 553 408 bytes
Length: 0:04:39.279
Total Bitrate: 36,25 Mbps
Video: MPEG-4 AVC Video / 29972 kbps / 1080i / 29,970 fps / 16:9 / High Profile 4.1
Audio: English / LPCM Audio / 2.0 / 48 kHz / 1536 kbps / 16-bit
Audio: English / DTS-HD Master Audio / 5.1 / 48 kHz / 2712 kbps / 16-bit (DTS Core: 5.1 / 48 kHz / 1509 kbps / 16-bit)
********************
PLAYLIST: 00018.MPLS
********************
<--- BEGIN FORUMS PASTE --->
Total   Video
Title                                                           Codec   Length  Movie Size      Disc Size       Bitrate Bitrate Main Audio Track                          Secondary Audio Track
-----                                                           ------  ------- --------------  --------------  ------- ------- ------------------                        ---------------------
00018.MPLS                                                      AVC     0:04:39 1 265 553 408   39 929 700 788  36,25   29,97   LPCM 2.0 1536Kbps (48kHz/16-bit)          DTS-HD Master 5.1 2712Kbps (48kHz/16-bit)
DISC INFO:
Disc Title:     Madonna.Rebel.Heart.Tour.2016.COMPLETE.MBLURAY-MIDDLE
Disc Size:      39 929 700 788 bytes
Protection:     AACS
BD-Java:        No
BDInfo:         0.5.8
PLAYLIST REPORT:
Name:                   00018.MPLS
Length:                 0:04:39.279 (h:m:s.ms)
Size:                   1 265 553 408 bytes
Total Bitrate:          36,25 Mbps
VIDEO:
Codec                   Bitrate             Description
-----                   -------             -----------
MPEG-4 AVC Video        29972 kbps          1080i / 29,970 fps / 16:9 / High Profile 4.1
AUDIO:
Codec                           Language        Bitrate         Description
-----                           --------        -------         -----------
LPCM Audio                      English         1536 kbps       2.0 / 48 kHz / 1536 kbps / 16-bit
DTS-HD Master Audio             English         2712 kbps       5.1 / 48 kHz / 2712 kbps / 16-bit (DTS Core: 5.1 / 48 kHz / 1509 kbps / 16-bit)
FILES:
Name            Time In         Length          Size            Total Bitrate
----            -------         ------          ----            -------------
00018.M2TS      0:00:00.000     0:04:39.279     1 265 553 408   36 252
CHAPTERS:
Number          Time In         Length          Avg Video Rate  Max 1-Sec Rate  Max 1-Sec Time  Max 5-Sec Rate  Max 5-Sec Time  Max 10Sec Rate  Max 10Sec Time  Avg Frame Size  Max Frame Size  Max Frame Time
------          -------         ------          --------------  --------------  --------------  --------------  --------------  --------------  --------------  --------------  --------------  --------------
1               0:00:00.000     0:04:39.279     29 972 kbps     38 683 kbps     00:03:50.096    33 912 kbps     00:03:46.092    33 212 kbps     00:03:41.087    125 010 bytes   580 105 bytes   00:03:43.022
STREAM DIAGNOSTICS:
File            PID             Type            Codec           Language                Seconds                 Bitrate                 Bytes           Packets
----            ---             ----            -----           --------                --------------          --------------          -------------   -----
00018.M2TS      4113 (0x1011)   0x1B            AVC                                     279,146                 29 987                  1 046 333 106   5 691 549
00018.M2TS      4352 (0x1100)   0x80            LPCM            eng (English)           279,146                 1 543                   53 845 184      335 136
00018.M2TS      4353 (0x1101)   0x86            DTS-HD MA       eng (English)           279,146                 2 713                   94 659 892      555 347
<---- END FORUMS PASTE ---->
QUICK SUMMARY:
Disc Title: Madonna.Rebel.Heart.Tour.2016.COMPLETE.MBLURAY-MIDDLE
Disc Size: 39 929 700 788 bytes
Protection: AACS
BD-Java: No
Playlist: 00018.MPLS
Size: 1 265 553 408 bytes
Length: 0:04:39.279
Total Bitrate: 36,25 Mbps
Video: MPEG-4 AVC Video / 29972 kbps / 1080i / 29,970 fps / 16:9 / High Profile 4.1
Audio: English / LPCM Audio / 2.0 / 48 kHz / 1536 kbps / 16-bit
Audio: English / DTS-HD Master Audio / 5.1 / 48 kHz / 2712 kbps / 16-bit (DTS Core: 5.1 / 48 kHz / 1509 kbps / 16-bit)
-

Скриншоты

Дополнительные скриншоты

--
--

[Цитировать]



Показать сообщения:    

Текущее время: 20-Сен 01:16

Часовой пояс: UTC + 6


Вы не можете начинать темы
Вы не можете отвечать на сообщения
Вы не можете редактировать свои сообщения
Вы не можете удалять свои сообщения
Вы не можете голосовать в опросах
Вы не можете прикреплять файлы к сообщениям
Вы не можете скачивать файлы

!ВНИМАНИЕ!
Сайт не предоставляет электронные версии произведений, а занимается лишь коллекционированием и каталогизацией ссылок, присылаемых и публикуемых на форуме нашими читателями. Если вы являетесь правообладателем какого-либо представленного материала и не желаете, чтобы ссылка на него находилась в нашем каталоге, свяжитесь с нами, и мы незамедлительно удалим ее. Файлы для обмена на трекере предоставлены пользователями сайта, и администрация не несет ответственности за их содержание. Просьба не заливать файлы, защищенные авторскими правами, а также файлы нелегального содержания!