***Уважаемые пользователи и гости !!! Сайт переехал на новый домен Torrents-club.info. Просьба изменить ваши закладки! ***
 
[ Сегодня идет свободное скачивание без начисления Download ]


 
 
Три богатыря и принцесса Египта Информация о фильме
Название: Три богатыря и принцесса Египта
Год выпуска: 2017
Страна: Россия
Жанр: Мультфильм, приключения, семейный, фэнтези-Перевод: Оригинал [iTunes]
Продолжительность: 01:08:43-Режиссер: Константин Феоктистов
В ролях: Олег Куликович (Алёша Попович / Змей Горыныч, озвучка), Валерий Соловьев (Добрыня Никитич, озвучка), Дмитрий Быковский-Ромашов (Илья Муромец, озвучка), Сергей Маковецкий (Князь Киевский, озвучка), Дмитрий Высоцкий (конь Юлий, озвучка), Александр Быковский (Дурило, озвучка), Елена Шульман (Настасья, озвучка), Лия Медведева (Любава, озвучка), Мария Цветкова-Овсянникова (Алёнушка, озвучка), Анатолий Петров (Антипка, озвучка), Валентин Морозов (Дед Мороз, озвучка), Константин Феоктистов (разбойник, озвучка)-Описание:
В новогоднюю ночь, в то время, как Князь готовится произнести торжественную речь, а Юлий распаковывает подарки и следит за приготовлением праздничного стола, богатыри едут в гости к Алёше и встречают там странного товарища по имени Дурило. Оказывается, это тринадцатый месяц, который никому особенно не нужен, и который пытается осуществить своё заветное желание - стать самым главным месяцем в году. Только и надо ему, что притвориться Дедом Морозом, показать доверчивому Алёше пару фокусов, подружиться с богатырями и оказаться в Египте - стране фараонов и древних пирамид. А дальше - пирамиды, заклинание, Древний огонь - и дело в шляпе! Но не так-то просто осуществить своё коварное желание, когда на пути у тебя встают не только три богатыря, но и их жёны, Князь и Юлий, Змей Горыныч и Дед Мороз и даже - сама принцесса Нефертити!
-Качество: WEB-DLRip-AVC
Формат: MKV
Видео: AVC, 1024x576 (16:9), 1763 kbps, 25 fps, 0,120 bpp
Аудио: Русский / AC3 / 5.1 / 48 kHz / 384 kbps
Навигация по главам: Есть-Релиз от: -

ОтчетМедиаИнфо

Общее
Уникальный идентификатор : 205961978204328868782501923042808877668 (0x9AF2D58913FA16B1926D464AF12CD264)
Полное имя : E:Tri bogatyrya i princessa Egipta.2O18.WEB-DLRip-AVC.by.White Smoke.R.G.Generalfilm.mkv
Формат : Matroska
Размер файла : 1,03 Гбайт
Продолжительность : 1 ч. 8 м.
Общий поток : 2148 Кбит/сек
Название фильма : Tri bogatyrya i princessa Egipta.2O18.WEB-DLRip-AVC.by.White Smoke.R.G.Generalfilm.mkv
Дата кодирования : UTC 2018-01-31 13:46:35
Программа кодирования : mkvmerge v6.8.0 ('Theme for Great Cities') 64bit built on Mar 2 2014 21:34:26
Библиотека кодирования : libebml v1.3.0 + libmatroska v1.4.1
Видео
Идентификатор : 1
Формат : AVC
Формат/Информация : Advanced Video Codec
Профиль формата : High@L4.1
Параметр CABAC формата : Да
Параметр ReFrames формата : 10 кадры
Идентификатор кодека : V_MPEG4/ISO/AVC
Продолжительность : 1 ч. 8 м.
Битрейт : 1763 Кбит/сек
Ширина : 1024 пикс.
Высота : 576 пикс.
Соотношение сторон : 16:9
Частота кадров : 25,000 кадр/сек
Цветовое пространство : YUV
Подвыборка цветности : 4:2:0
Битовая глубина : 8 бит
Тип развёртки : Прогрессивная
Бит/(Пиксели*Кадры) : 0.120
Размер потока : 846 Мбайт (80%)
Библиотека кодирования : x264 core 148 r2638 7599210
Настройки программы : cabac=1 / ref=10 / deblock=1:-2:-1 / analyse=0x3:0x113 / me=umh / subme=11 / psy=1 / psy_rd=0.00:0.15 / mixed_ref=1 / me_range=32 / chroma_me=1 / trellis=2 / 8x8dct=1 / cqm=0 / deadzone=21,11 / fast_pskip=0 / chroma_qp_offset=-3 / threads=6 / lookahead_threads=1 / sliced_threads=0 / nr=0 / decimate=1 / interlaced=0 / bluray_compat=0 / constrained_intra=0 / bframes=10 / b_pyramid=2 / b_adapt=2 / b_bias=0 / direct=1 / weightb=1 / open_gop=0 / weightp=2 / keyint=250 / keyint_min=23 / scenecut=40 / intra_refresh=0 / rc_lookahead=40 / rc=2pass / mbtree=1 / bitrate=1763 / ratetol=1.0 / qcomp=0.65 / qpmin=0 / qpmax=69 / qpstep=4 / cplxblur=20.0 / qblur=0.5 / vbv_maxrate=50000 / vbv_bufsize=65500 / nal_hrd=none / filler=0 / ip_ratio=1.40 / aq=1:1.00
Язык : English
Аудио
Идентификатор : 2
Формат : AC-3
Формат/Информация : Audio Coding 3
Расширение режима : CM (complete main)
Идентификатор кодека : A_AC3
Продолжительность : 1 ч. 8 м.
Вид битрейта : Постоянный
Битрейт : 384 Кбит/сек
Канал(ы) : 6 канала(ов)
Расположение каналов : Front: L C R, Side: L R, LFE
Частота : 48,0 КГц
Битовая глубина : 16 бит
Метод сжатия : С потерями
Размер потока : 189 Мбайт (18%)
Заголовок : iTuns
Язык : Russian
Меню
00:00:00.000 : en:Глава 1
00:07:28.280 : en:Глава 2
00:12:39.720 : en:Глава 3
00:17:31.400 : en:Глава 4
00:23:15.800 : en:Глава 5
00:28:30.840 : en:Глава 6
00:32:41.920 : en:Глава 7
00:37:37.520 : en:Глава 8
00:42:24.320 : en:Глава 9
00:46:54.720 : en:Глава 10
00:51:00.120 : en:Глава 11
00:55:35.760 : en:Глава 12
00:59:06.800 : en:Глава 1

Скриншоты

[Цитировать]



Показать сообщения:    

Текущее время: 10-Авг 18:00

Часовой пояс: UTC + 6


Вы не можете начинать темы
Вы не можете отвечать на сообщения
Вы не можете редактировать свои сообщения
Вы не можете удалять свои сообщения
Вы не можете голосовать в опросах
Вы не можете прикреплять файлы к сообщениям
Вы не можете скачивать файлы

!ВНИМАНИЕ!
Сайт не предоставляет электронные версии произведений, а занимается лишь коллекционированием и каталогизацией ссылок, присылаемых и публикуемых на форуме нашими читателями. Если вы являетесь правообладателем какого-либо представленного материала и не желаете, чтобы ссылка на него находилась в нашем каталоге, свяжитесь с нами, и мы незамедлительно удалим ее. Файлы для обмена на трекере предоставлены пользователями сайта, и администрация не несет ответственности за их содержание. Просьба не заливать файлы, защищенные авторскими правами, а также файлы нелегального содержания!