***Уважаемые пользователи и гости !!! Сайт переехал на новый домен Torrents-club.info. Просьба изменить ваши закладки! ***
 
[ Сегодня идет свободное скачивание без начисления Download ]


Статистика раздачи
Нет
 
   
 
 
 
 
Беременность / Embarazados (2016) HDRip 720p Информация о фильме
Название: Беременность
Оригинальное название: Embarazados
Год выпуска: 2016
Жанр: Комедия
Выпущено: Испания
Режиссер: Хуана Масиас
В ролях: Пако Леон, Александра Хименес, Альберто Амарилья, Эрнесто Севилья, Айноа Айербе, Иньяки Фонт, Гойсальде Нуньес, Карра Элехальде, Белен Лопес
О фильме:
Всё просто: в результате слияния яйцеклетки и сперматозоида получается эмбрион. Но когда у тебя мало сперматозоидов, и к тому же они ленивые, а у твоей женщины пременопауза в 37 лет, всё становится гораздо сложнее.

Страна: Испания
Студия: Lanube Películas, Audiovisuales del Monte S.L., Instituto de la Cinematografía y de las Artes Audiovisuales (ICAA)
Продолжительность: Продолжительность видео, в формате ЧЧ:ММ:СС
Перевод: Любительский многоголосый [GreenРай Studio]
Файл
Кодек: x264
Качество: HDRip 720p
Видео: 4000 Кбит/с, 1280x528 24.000 fps
Звук: Русский (AC3, 2 ch, 640 Кбит/с)

Скриншоты

MediaInfo

General
Unique ID : 218264637089242583108026651199680873271 (0xA4343D73123FF698B9302428B0610337)
Complete name : E:GreenRayIstanbul.Kirmizisi.2017.P.BDRip.720p.mkv
Format : Matroska
Format version : Version 4 / Version 2
File size : 3.63 GiB
Duration : 1 h 54 min
Overall bit rate mode : Constant
Overall bit rate : 4 544 kb/s
Encoded date : UTC 2018-02-20 15:14:38
Writing application : mkvmerge v8.3.0 ('Over the Horizon') 64bit
Writing library : libebml v1.3.1 + libmatroska v1.4.2
Video
ID : 1
Format : AVC
Format/Info : Advanced Video Codec
Format profile : Main@L3.1
Format settings : CABAC / 3 Ref Frames
Format settings, CABAC : Yes
Format settings, ReFrames : 3 frames
Format settings, GOP : M=4, N=15
Codec ID : V_MPEG4/ISO/AVC
Duration : 1 h 54 min
Bit rate mode : Constant
Bit rate : 4 000 kb/s
Width : 1 280 pixels
Height : 536 pixels
Display aspect ratio : 2.40:1
Frame rate mode : Constant
Frame rate : 23.976 (24000/1001) FPS
Standard : NTSC
Color space : YUV
Chroma subsampling : 4:2:0
Bit depth : 8 bits
Scan type : Progressive
Bits/(Pixel*Frame) : 0.243
Stream size : 3.12 GiB (86%)
Language : English
Default : Yes
Forced : No
Color range : Limited
Audio
ID : 2
Format : AC-3
Format/Info : Audio Coding 3
Codec ID : A_AC3
Duration : 1 h 54 min
Bit rate mode : Constant
Bit rate : 640 kb/s
Channel(s) : 2 channels
Channel positions : Front: L R
Sampling rate : 48.0 kHz
Frame rate : 31.250 FPS (1536 SPF)
Bit depth : 16 bits
Compression mode : Lossy
Stream size : 523 MiB (14%)
Service kind : Complete Main
Default : Yes
Forced : No
Внимание,имеется видео и аудио реклама от спонсора показа
Над релизом работали:
Состав дикторов Анастасия Гайдаржи, Илья Кочетков, Олег Винник
Руководитель проекта и координатор: Евгений Овчаренко
Организатор и координатор: Никита Марков
Пиар менеджер студии: Гриша Чернозатонский
Техническая поддержка: Александр Методий

[Цитировать]



Показать сообщения:    

Текущее время: 08-Апр 13:32

Часовой пояс: UTC + 6


Вы не можете начинать темы
Вы не можете отвечать на сообщения
Вы не можете редактировать свои сообщения
Вы не можете удалять свои сообщения
Вы не можете голосовать в опросах
Вы не можете прикреплять файлы к сообщениям
Вы не можете скачивать файлы

!ВНИМАНИЕ!
Сайт не предоставляет электронные версии произведений, а занимается лишь коллекционированием и каталогизацией ссылок, присылаемых и публикуемых на форуме нашими читателями. Если вы являетесь правообладателем какого-либо представленного материала и не желаете, чтобы ссылка на него находилась в нашем каталоге, свяжитесь с нами, и мы незамедлительно удалим ее. Файлы для обмена на трекере предоставлены пользователями сайта, и администрация не несет ответственности за их содержание. Просьба не заливать файлы, защищенные авторскими правами, а также файлы нелегального содержания!