***Уважаемые пользователи и гости !!! Сайт переехал на новый домен Torrents-club.info. Просьба изменить ваши закладки! ***
 
[ Сегодня идет свободное скачивание без начисления Download ]


Статистика раздачи
Нет
 
   
 
 
 
 
Несколько минут после полуночи / Minutes Past Midnight (2016) HDRip 720p Информация о фильме
Название: Несколько минут после полуночи
Оригинальное название: Minutes Past Midnight
Год выпуска: 2016
Жанр: Ужасы, триллер
Режиссер: Ли Кронин
В ролях: Джейсон Флеминг, Барбара Стил, Мика Бурем, Оуэн МакДоннел, Стив Уолл, Артур Дарвилл
О фильме:
После полуночи на землю приходит ужас в самых разных своих проявлениях. Демоны, каннибалы, убийцы, призраки и монстры заполоняют мир в таких сверхъестественных, фантастичних и просто ужасных историях. В картине представлено девять мини-фильмов ужасов

Страна: Канада
Студия: Indiecan Entertainment, Rue Morgue Magazine, Unstable Ground Productions
Продолжительность: 01:38:05
Перевод: Любительский многоголосый [GreenРай Studio]
Файл
Кодек: x264
Качество: HDRip 720p
Видео: 4123 Кбит/с, 1280x536, 23.976 fps
Звук: Русский (AC3, 2 ch, 640 Кбит/с)

Скриншоты

MediaInfo

General
Unique ID : 191615987745501974990247950458610203373 (0x9027E598C385C4A198017D9D35D33AED)
Complete name : E:GreenRayEl.faro.de.las.orcas.2017.P.BDRip.720p.mkv
Format : Matroska
Format version : Version 4 / Version 2
File size : 3.84 GiB
Duration : 1 h 50 min
Overall bit rate : 4 952 kb/s
Encoded date : UTC 2018-02-21 10:39:15
Writing application : mkvmerge v8.3.0 ('Over the Horizon') 64bit
Writing library : libebml v1.3.1 + libmatroska v1.4.2
Video
ID : 1
Format : AVC
Format/Info : Advanced Video Codec
Format profile : High@L3.1
Format settings : CABAC / 4 Ref Frames
Format settings, CABAC : Yes
Format settings, ReFrames : 4 frames
Codec ID : V_MPEG4/ISO/AVC
Duration : 1 h 50 min
Bit rate : 4 310 kb/s
Width : 1 280 pixels
Height : 536 pixels
Display aspect ratio : 2.40:1
Frame rate mode : Constant
Frame rate : 24.000 FPS
Color space : YUV
Chroma subsampling : 4:2:0
Bit depth : 8 bits
Scan type : Progressive
Bits/(Pixel*Frame) : 0.262
Stream size : 3.34 GiB (87%)
Writing library : x264 core 146 r2538 121396c
Encoding settings : cabac=1 / ref=1 / deblock=1:-1:-1 / analyse=0x3:0x113 / me=hex / subme=2 / psy=1 / psy_rd=1.00:0.20 / mixed_ref=0 / me_range=16 / chroma_me=1 / trellis=0 / 8x8dct=1 / cqm=0 / deadzone=21,11 / fast_pskip=1 / chroma_qp_offset=0 / threads=18 / lookahead_threads=4 / sliced_threads=0 / nr=0 / decimate=1 / interlaced=0 / bluray_compat=0 / constrained_intra=0 / bframes=3 / b_pyramid=2 / b_adapt=1 / b_bias=0 / direct=1 / weightb=1 / open_gop=0 / weightp=1 / keyint=250 / keyint_min=24 / scenecut=40 / intra_refresh=0 / rc_lookahead=10 / rc=crf / mbtree=1 / crf=13.2 / qcomp=0.60 / qpmin=0 / qpmax=69 / qpstep=4 / ip_ratio=1.40 / aq=1:1.00
Language : English
Default : Yes
Forced : No
Audio
ID : 2
Format : AC-3
Format/Info : Audio Coding 3
Codec ID : A_AC3
Duration : 1 h 50 min
Bit rate mode : Constant
Bit rate : 640 kb/s
Channel(s) : 2 channels
Channel positions : Front: L R
Sampling rate : 48.0 kHz
Frame rate : 31.250 FPS (1536 SPF)
Bit depth : 16 bits
Compression mode : Lossy
Stream size : 508 MiB (13%)
Service kind : Complete Main
Default : Yes
Forced : No
Внимание,имеется видео и аудио реклама от спонсора показа
Над релизом работали:
Над релизом работали:
Состав дикторов Руслан Чериев, Мария Морошкина, Андрей Данилко
Руководитель проекта и координатор: Евгений Овчаренко
Организатор и координатор: Никита Марков
Пиар менеджер студии: Гриша Чернозатонский
Техническая поддержка: Александр Методий

[Цитировать]



Показать сообщения:    

Текущее время: 22-Фев 01:02

Часовой пояс: UTC + 6


Вы не можете начинать темы
Вы не можете отвечать на сообщения
Вы не можете редактировать свои сообщения
Вы не можете удалять свои сообщения
Вы не можете голосовать в опросах
Вы не можете прикреплять файлы к сообщениям
Вы не можете скачивать файлы

!ВНИМАНИЕ!
Сайт не предоставляет электронные версии произведений, а занимается лишь коллекционированием и каталогизацией ссылок, присылаемых и публикуемых на форуме нашими читателями. Если вы являетесь правообладателем какого-либо представленного материала и не желаете, чтобы ссылка на него находилась в нашем каталоге, свяжитесь с нами, и мы незамедлительно удалим ее. Файлы для обмена на трекере предоставлены пользователями сайта, и администрация не несет ответственности за их содержание. Просьба не заливать файлы, защищенные авторскими правами, а также файлы нелегального содержания!