***Уважаемые пользователи и гости !!! Сайт переехал на новый домен Torrents-club.info. Просьба изменить ваши закладки! ***
 
[ Сегодня идет свободное скачивание без начисления Download ]


Статистика раздачи
Нет
 
   
 
 
 
 
Приключения Васи Куролесова (1981) Информация о фильме
Название: Приключения Васи Куролесова
Год выпуска: 1981
Жанр: Мультфильм, короткометражка
Режиссеры: Владимир Попов
Озвучивали: Михаил Кононов, Вера Васильева, Лев Дуров, Вячеслав Невинный, Борис Новиков, Юрий Яковлев, Евгений Леонов
Описание: «Приключения Васи Куролесова» — советский рисованный мультипликационный фильм, созданный по одноимённой повести известного писателя Юрия Коваля режиссёром Владимиром Поповым. Фильм решён в юмористическом ключе, его отличают увлекательный сюжет, сочные характеры, лёгкие, яркие рисунки.

Страна: СССР
Студия: Союзмультфильм
Продолжительность: 00:25:05
Перевод: Не требуется
Файл
Качество: BDRip 1080p
Формат: MKV
Видео кодек: AVC
Аудио кодек: AC3
Видео: 1424x1080 (4:3), 25,000 fps, Advanced Video Codec [High@L4.1] ~12.0 Mbps avg, 0.312 bit/pixel
Аудио: Dolby AC3, 48000 Hz, 6ch, 448 kbps
Релиз от:

MediaInfo:

General
Unique ID : 175349892377303646850703535016759503979 (0x83EB292D4C75823F8C57D2EC91C7AC6B)
Complete name : 1981.Kurolesov.likko.mkv
Format : Matroska
Format version : Version 4 / Version 2
File size : 2.18 GiB
Duration : 25 min 4 s
Overall bit rate : 12.4 Mb/s
Movie name : 1981 Приключения Васи Куролесова/likko
Encoded date : UTC 2017-03-26 14:34:53
Writing application : mkvmerge v8.3.0 ('Over the Horizon') 64bit
Writing library : libebml v1.3.1 + libmatroska v1.4.2
Video
ID : 1
Format : AVC
Format/Info : Advanced Video Codec
Format profile : High@L4.1
Format settings, CABAC : Yes
Format settings, ReFrames : 5 frames
Codec ID : V_MPEG4/ISO/AVC
Duration : 25 min 4 s
Bit rate : 12.0 Mb/s
Width : 1 424 pixels
Height : 1 080 pixels
Display aspect ratio : 4:3
Frame rate mode : Constant
Frame rate : 25.000 FPS
Color space : YUV
Chroma subsampling : 4:2:0
Bit depth : 8 bits
Scan type : Progressive
Bits/(Pixel*Frame) : 0.312
Stream size : 2.10 GiB (96%)
Title : 1981 Приключения Васи Куролесова
Writing library : x264 core 146 r2538 121396c
Encoding settings : cabac=1 / ref=5 / deblock=1:-1:-1 / analyse=0x3:0x133 / me=umh / subme=11 / psy=1 / psy_rd=1.00:0.15 / mixed_ref=1 / me_range=32 / chroma_me=1 / trellis=2 / 8x8dct=1 / cqm=0 / deadzone=21,11 / fast_pskip=0 / chroma_qp_offset=-3 / threads=12 / lookahead_threads=3 / sliced_threads=0 / nr=0 / decimate=1 / interlaced=0 / bluray_compat=0 / constrained_intra=0 / bframes=10 / b_pyramid=2 / b_adapt=2 / b_bias=0 / direct=3 / weightb=1 / open_gop=0 / weightp=2 / keyint=250 / keyint_min=25 / scenecut=40 / intra_refresh=0 / rc_lookahead=50 / rc=2pass / mbtree=1 / bitrate=12000 / ratetol=1.0 / qcomp=0.60 / qpmin=0 / qpmax=69 / qpstep=4 / cplxblur=20.0 / qblur=0.5 / ip_ratio=1.40 / aq=2:1.00
Language : Russian
Default : Yes
Forced : No
Audio
ID : 2
Format : AC-3
Format/Info : Audio Coding 3
Format settings, Endianness : Big
Codec ID : A_AC3
Duration : 25 min 4 s
Bit rate mode : Constant
Bit rate : 448 kb/s
Channel(s) : 6 channels
Channel positions : Front: L C R, Side: L R, LFE
Sampling rate : 48.0 kHz
Frame rate : 31.250 FPS (1536 spf)
Bit depth : 16 bits
Compression mode : Lossy
Stream size : 80.4 MiB (4%)
Language : Russian
Service kind : Complete Main
Default : Yes
Forced : No

Скриншоты:



[Цитировать]

Топик был перенесен из форума Мультфильмы (HD Video) в форум Отечественные мультфильмы
Viktor1952



Показать сообщения:    

Текущее время: 22-Фев 00:38

Часовой пояс: UTC + 6


Вы не можете начинать темы
Вы не можете отвечать на сообщения
Вы не можете редактировать свои сообщения
Вы не можете удалять свои сообщения
Вы не можете голосовать в опросах
Вы не можете прикреплять файлы к сообщениям
Вы не можете скачивать файлы

!ВНИМАНИЕ!
Сайт не предоставляет электронные версии произведений, а занимается лишь коллекционированием и каталогизацией ссылок, присылаемых и публикуемых на форуме нашими читателями. Если вы являетесь правообладателем какого-либо представленного материала и не желаете, чтобы ссылка на него находилась в нашем каталоге, свяжитесь с нами, и мы незамедлительно удалим ее. Файлы для обмена на трекере предоставлены пользователями сайта, и администрация не несет ответственности за их содержание. Просьба не заливать файлы, защищенные авторскими правами, а также файлы нелегального содержания!