***Уважаемые пользователи и гости !!! Сайт переехал на новый домен Torrents-club.info. Просьба изменить ваши закладки! ***
 
[ Сегодня идет свободное скачивание без начисления Download ]


 
 
Чужая земля
Название: Чужая земля
Страна: Россия
Производство: АНО "Золотой орёл", BCBG production
Год выпуска: 2013
Жанр: Документальный
Режиссёр: Никита Михалков, Элла Тухарели
Текст читал: Сергей Чонишвили
Участники: Никита Михалков, деревенские жители
Перевод: Не требуется
Описание: Запустение деревень — трагический процесс. Еще сто лет назад 85% населения России составляли крестьяне. Полвека назад в Томской области было более 15 тысяч деревень. Сейчас осталось 600. В Костромской области треть населенных пунктов уже стали практически вымершими, а еще треть — с населением до 10 человек. Специалисты говорят, что все деревни Нечерноземья, в которых сейчас живет меньше 50 человек, исчезнут уже через 15 лет. Фильм Никиты Михалкова расскажет о подвижниках, которые, не смотря ни на что, остаются в деревне, продолжают трудиться на земле и поднимать сельское хозяйство.

Качество: SATRip
Продолжительность: 01:01:01
Формат: AVI
Видео кодек: DivX 5.0
Аудио кодек: MP2
Свойства видео: 720x400 (16:9), 25 fps, DivX ~1 500 kbps avg, 0.208 bit/pixel
Свойства аудио: 48 kHz, MPEG Layer 2, 2 ch, ~128.00 kbps avg

MediaInfo

Общее
Полное имя : Chuzhaya.Zemlya.SATRip.avi
Формат : AVI
Формат/Информация : Audio Video Interleave
Размер файла : 715 Мбайт
Продолжительность : 1 ч. 1 м.
Общий поток : 1638 Кбит/сек
Программа кодирования : VirtualDubModRus 1.5.10.1 (build 2439/release)
Библиотека кодирования : VirtualDubMod build 2439/release
Видео
Идентификатор : 0
Формат : MPEG-4 Visual
Параметр BVOP формата : 1
Параметр QPel формата : Нет
Параметр GMC формата : Без точки перехода
Параметр матрицы формата : Default (H.263)
Режим смешивания : Сжатый битовый поток
Идентификатор кодека : DX50
Идентификатор кодека/Подсказка : DivX 5
Продолжительность : 1 ч. 1 м.
Битрейт : 1500 Кбит/сек
Ширина : 720 пикс.
Высота : 400 пикс.
Соотношение сторон : 16:9
Частота кадров : 25,000 кадр/сек
Цветовое пространство : YUV
Подвыборка цветности : 4:2:0
Битовая глубина : 8 бит
Тип развёртки : Прогрессивная
Метод сжатия : С потерями
Бит/(Пиксели*Кадры) : 0.208
Размер потока : 655 Мбайт (92%)
Библиотека кодирования : DivX 6.8.5 (UTC 2009-08-20)
Аудио
Идентификатор : 1
Формат : MPEG Audio
Версия формата : Version 1
Профиль формата : Layer 2
Идентификатор кодека : 50
Продолжительность : 1 ч. 1 м.
Вид битрейта : Постоянный
Битрейт : 128 Кбит/сек
Канал(ы) : 2 канала(ов)
Частота : 48,0 КГц
Метод сжатия : С потерями
Размер потока : 55,9 Мбайт (8%)
Выравнивание : Соединение по промежуткам
Продолжительность промежутка : 40 мс. (1,00 видеокадр)
Время предзагрузки промежутка : 504 ms

[Цитировать]

Кто решит посмотреть этот фильм, обязательно посмотрите 2-ю часть!!!

[Цитировать]



Показать сообщения:    

Текущее время: 13-Апр 19:09

Часовой пояс: UTC + 6


Вы не можете начинать темы
Вы не можете отвечать на сообщения
Вы не можете редактировать свои сообщения
Вы не можете удалять свои сообщения
Вы не можете голосовать в опросах
Вы не можете прикреплять файлы к сообщениям
Вы не можете скачивать файлы

!ВНИМАНИЕ!
Сайт не предоставляет электронные версии произведений, а занимается лишь коллекционированием и каталогизацией ссылок, присылаемых и публикуемых на форуме нашими читателями. Если вы являетесь правообладателем какого-либо представленного материала и не желаете, чтобы ссылка на него находилась в нашем каталоге, свяжитесь с нами, и мы незамедлительно удалим ее. Файлы для обмена на трекере предоставлены пользователями сайта, и администрация не несет ответственности за их содержание. Просьба не заливать файлы, защищенные авторскими правами, а также файлы нелегального содержания!