***Уважаемые пользователи и гости !!! Сайт переехал на новый домен Torrents-club.info. Просьба изменить ваши закладки! ***
 
[ Сегодня идет свободное скачивание без начисления Download ]


Статистика раздачи
Нет
 
   
 
 
 
Неуловимые [1-8 серия из 8] (2018) HDTVRip Оригинальное название: Неуловимые
Год выпуска: 2017
Жанр: Детектив, исторический фильм
Выпущено: Россия, Киностудия КИТ, кинокомпания «Тим Филмз»
Режиссер: Владимир Виноградов (II)
В ролях: Оксана Фандера, Александр Лыков, Сергей Газаров, Юрий Стоянов, Евгений Березин, Таисия Шипилова, Николай Сороканов, Максим Емельянов, Владислав Тирон, Александр Фисенко, Пьер Бурель, Денис Свистун, Сергей Шаталов
О фильме: 1958 год. Два легендарных черноморских вора, уходя на пенсию, решают провернуть «ограбление века». Цель – уникальная скрипка работы Антонио Страдивари, подаренная самой королевой Бельгии советскому виртуозу Давиду Ойстраху. Для виртуозного ограбления поезда, в котором перевозят скрипку, матёрые преступники собирают целую команду из молодых умельцев преступного дела. Но советская милиция не дремлет! И вот уже в числе молодых и неуловимых грабителей значится «засланный казачок» — агент под прикрытием Алексей Терентьев по кличке Золотозубый, задача которого схватить всех участников дела с поличным. Однако противостояние воров и милиции внезапно принимает неожиданный оборот, когда в дело вмешивается любовь...
Файл:
Качество: HDTVRip
Видео: XviD, ~ 1600 Кбит/с, 720x400
Аудио: AC3, 2 ch, 192 Кбит/с
Продолжительность: 8 х ~ 00:48:00
Язык: Русский
Доп. ин.-ция

Внимание! Раздача ведётся путём добавления новых серий

Раздача ведётся путём добавления новых серий, при каждом добавлении создаётся новый торрент. Чтобы начать докачку новой серии, пользователям необходимо сделать следующее:
- Остановить скачивание.
- Удалить старый торрент у себя из клиента (старые серии удалять не надо).
- Скачать новый торрент и запустить его у себя в клиенте вместо старого, при этом указать клиенту путь в старую папку куда и должно происходить скачивание новых серий.
Ваш клиент при этом должен произвести хеширование (проверку) старой папки (если не производит сам - помогите ему сделать это), и будет докачивать только те серии которых у вас ещё нет. Старые серии при этом не удаляются, а продолжают раздаваться!

MediaInfo:

Общее
Полное имя : D:\моё видио\Неуловимые.2018 .HDTVip.Files-x\01 Неуловимые.2018 .HDTVip.Files-x.avi
Формат : AVI
Формат/Информация : Audio Video Interleave
Размер файла : 570 Мбайт
Продолжительность : 46 м.
Общий поток : 1702 Кбит/сек
Программа кодирования : VirtualDubMod 1.5.10.3 | www.virtualdub-fr.org || (build 2550/release)
Библиотека кодирования : VirtualDubMod build 2550/release
Видео
Идентификатор : 0
Формат : MPEG-4 Visual
Профиль формата : Advanced Simple@L5
Параметр BVOP формата : 1
Параметр QPel формата : Нет
Параметр GMC формата : Без точки перехода
Параметр матрицы формата : Выборочная
Идентификатор кодека : XVID
Идентификатор кодека/Подсказка : XviD
Продолжительность : 46 м.
Битрейт : 1500 Кбит/сек
Ширина : 720 пикселей
Высота : 400 пикселей
Соотношение сторон : 16:9
Частота кадров : 25,000 кадров/сек
Цветовое пространство : YUV
Субдискретизация насыщенности : 4:2:0
Битовая глубина : 8 бит
Тип развёртки : Прогрессивная
Метод сжатия : С потерями
Бит/(Пиксели*Кадры) : 0.208
Размер потока : 503 Мбайт (88%)
Библиотека кодирования : XviD 73
Аудио
Идентификатор : 1
Формат : AC-3
Формат/Информация : Audio Coding 3
Расширение режима : CM (complete main)
Параметр Endianness формата : Big
Идентификатор кодека : 2000
Продолжительность : 46 м.
Вид битрейта : Постоянный
Битрейт : 192 Кбит/сек
Каналы : 2 канала
Расположение каналов : Front: L R
Частота : 48,0 КГц
Битовая глубина : 16 бит
Метод сжатия : С потерями
Размер потока : 64,4 Мбайт (11%)
Выравнивание : Разделение по промежуткам
Продолжительность промежутка : 40 мс. (1,00 видеокадр)
Время предзагрузки промежутка : 500 мс.

Скриншоты

Добавлены 1-8 серии.
Сериал залит полностью.


Последний раз редактировалось: papa1951deda (2018-11-15 01:10), всего редактировалось 4 раз(а)

[Цитировать]

Добавлены 7-8 серии.

[Цитировать]



Показать сообщения:    

Текущее время: 24-Май 02:27

Часовой пояс: UTC + 6


Вы не можете начинать темы
Вы не можете отвечать на сообщения
Вы не можете редактировать свои сообщения
Вы не можете удалять свои сообщения
Вы не можете голосовать в опросах
Вы не можете прикреплять файлы к сообщениям
Вы не можете скачивать файлы

!ВНИМАНИЕ!
Сайт не предоставляет электронные версии произведений, а занимается лишь коллекционированием и каталогизацией ссылок, присылаемых и публикуемых на форуме нашими читателями. Если вы являетесь правообладателем какого-либо представленного материала и не желаете, чтобы ссылка на него находилась в нашем каталоге, свяжитесь с нами, и мы незамедлительно удалим ее. Файлы для обмена на трекере предоставлены пользователями сайта, и администрация не несет ответственности за их содержание. Просьба не заливать файлы, защищенные авторскими правами, а также файлы нелегального содержания!