***Уважаемые пользователи и гости !!! Сайт переехал на новый домен Torrents-club.info. Просьба изменить ваши закладки! ***
 
[ Сегодня идет свободное скачивание без начисления Download ]


Статистика раздачи
Нет
 
   
 
 
 
Чужие среди нас / They Live
Информация о фильме
Название: Чужие среди нас
Оригинальное название: They Live
Год выхода: 1988
Жанр: Ужасы, фантастика, боевик, триллер, антиутопия
Режиссер: Джон Карпентер
В ролях: Родди Пайпер, Кит Дэвид, Мег Фостер, Джордж «Бак» Флауэр, Питер Джейсон, Рэймонд Сейнт-Жак, Джейсон Робардс III, Джон Лоуренс, Сьюзэн Барнс, Сай Ричардсон
Описание: Однажды простой рабочий-строитель Нейда, которому не очень везёт в жизни, находит необычные солнечные очки. Надев их, он получает возможность увидеть мир таким, какой он есть. Реальность пугает! Оказывается, правительство и средства массовой информации бомбардируют людей скрытыми сообщениями, воздействующими на уровне подсознания: «Спите!», «Не давайте волю воображению», «Подчиняйтесь властям». А что еще страшнее, Нейда увидел истинное обличье многих политиков и важных членов общества! Они и не люди вовсе, а безобразные и злые инопланетяне с планеты Андромеда. Их миссия на Земле — проводить массовую кампанию по подчинению землян своей воле и держать людей в неведении… Нейда должен найти людей, которые, как и он, знают об истинном положении вещей (кто еще мог изготовить эти чудесные очки?), и присоединиться к их движению сопротивления, чтобы бороться!

Выпущено: США | Alive Films, Larry Franco Productions
Продолжительность: 01:34:26
Перевод: Профессиональный многоголосый, авторский
Субтитры: Русские, английские
Файл
Качество: BDRip 1080p | Сэмпл
Формат: MKV
Видео: MPEG-4 AVC, 15.9 Мбит/с, 1920x818, 24 кадр/с
Аудио #1: Русский (AC3, 6 ch, 448 Кбит/с) MVO
Аудио #2: Русский (AC3, 6 ch, 448 Кбит/с) AVO [Ю.Живов]
Аудио #3: Русский (AC3, 6 ch, 448 Кбит/с) AVO [В.Горчаков]
Аудио #4: Английский (AC3, 6 ch, 448 Кбит/с)
Релиз от:

МедиаИнфо

Формат : Matroska
Версия формата : Version 2
Размер файла : 11,6 Гбайт
Продолжительность : 1 ч. 34 м.
Общий поток : 17,7 Мбит/сек
Название фильма : ~V ad~
Дата кодирования : UTC 2018-11-07 17:58:20
Программа кодирования : mkvmerge v6.5.0 ('Isn't she lovely') built on Oct 20 2013 12:50:05
Библиотека кодирования : libebml v1.3.0 + libmatroska v1.4.1
Обложка : Yes
Attachments : cover.jpg
Видео
Идентификатор : 1
Формат : AVC
Формат/Информация : Advanced Video Codec
Профиль формата : High@L4.1
Настройки формата : CABAC / 5 Ref Frames
Параметр CABAC формата : Да
Параметр RefFrames формата : 5 кадров
Идентификатор кодека : V_MPEG4/ISO/AVC
Продолжительность : 1 ч. 34 м.
Битрейт : 15,9 Мбит/сек
Ширина : 1920 пикселей
Высота : 818 пикселей
Соотношение сторон : 2,35:1
Режим частоты кадров : Постоянный
Частота кадров : 24,000 кадра/сек
Цветовое пространство : YUV
Субдискретизация насыщенности : 4:2:0
Битовая глубина : 8 бит
Тип развёртки : Прогрессивная
Бит/(Пиксели*Кадры) : 0.422
Размер потока : 10,2 Гбайт (88%)
Заголовок : ~V~
Библиотека кодирования : x264 core 157 r2932 303c484
Настройки программы : cabac=1 / ref=5 / deblock=1:-3:-3 / analyse=0x3:0x133 / me=umh / subme=11 / psy=1 / psy_rd=1.00:0.00 / mixed_ref=1 / me_range=32 / chroma_me=1 / trellis=2 / 8x8dct=1 / cqm=0 / deadzone=21,11 / fast_pskip=0 / chroma_qp_offset=-2 / threads=12 / lookahead_threads=1 / sliced_threads=0 / nr=0 / decimate=0 / interlaced=0 / bluray_compat=0 / constrained_intra=0 / bframes=9 / b_pyramid=2 / b_adapt=2 / b_bias=0 / direct=3 / weightb=1 / open_gop=0 / weightp=2 / keyint=240 / keyint_min=24 / scenecut=40 / intra_refresh=0 / rc=2pass / mbtree=0 / bitrate=15889 / ratetol=1.0 / qcomp=0.80 / qpmin=0 / qpmax=69 / qpstep=4 / cplxblur=20.0 / qblur=0.5 / ip_ratio=1.30 / pb_ratio=1.28 / aq=3:0.70
Язык : Английский
Default : Да
Forced : Нет
Аудио #1
Идентификатор : 2
Формат : AC-3
Формат/Информация : Audio Coding 3
Коммерческое название : Dolby Digital
Идентификатор кодека : A_AC3
Продолжительность : 1 ч. 34 м.
Вид битрейта : Постоянный
Битрейт : 448 Кбит/сек
Каналы : 6 каналов
Channel layout : L R C LFE Ls Rs
Частота : 48,0 КГц
Частота кадров : 31,250 кадров/сек (1536 SPF)
Битовая глубина : 16 бит
Метод сжатия : С потерями
Размер потока : 303 Мбайт (3%)
Заголовок : MVO
Язык : Русский
Service Kind : Complete Main
Default : Да
Forced : Да
Аудио #2
Идентификатор : 3
Формат : AC-3
Формат/Информация : Audio Coding 3
Коммерческое название : Dolby Digital
Идентификатор кодека : A_AC3
Продолжительность : 1 ч. 34 м.
Вид битрейта : Постоянный
Битрейт : 448 Кбит/сек
Каналы : 6 каналов
Channel layout : L R C LFE Ls Rs
Частота : 48,0 КГц
Частота кадров : 31,250 кадров/сек (1536 SPF)
Битовая глубина : 16 бит
Метод сжатия : С потерями
Размер потока : 303 Мбайт (3%)
Заголовок : AVO[Ю.Живов]
Язык : Русский
Service Kind : Complete Main
Default : Нет
Forced : Нет
Аудио #3
Идентификатор : 4
Формат : AC-3
Формат/Информация : Audio Coding 3
Коммерческое название : Dolby Digital
Идентификатор кодека : A_AC3
Продолжительность : 1 ч. 34 м.
Вид битрейта : Постоянный
Битрейт : 448 Кбит/сек
Каналы : 6 каналов
Channel layout : L R C LFE Ls Rs
Частота : 48,0 КГц
Частота кадров : 31,250 кадров/сек (1536 SPF)
Битовая глубина : 16 бит
Метод сжатия : С потерями
Размер потока : 303 Мбайт (3%)
Заголовок : AVO[В.Горчаков]
Язык : Русский
Service Kind : Complete Main
Default : Нет
Forced : Нет
Аудио #4
Идентификатор : 5
Формат : AC-3
Формат/Информация : Audio Coding 3
Коммерческое название : Dolby Digital
Идентификатор кодека : A_AC3
Продолжительность : 1 ч. 34 м.
Вид битрейта : Постоянный
Битрейт : 448 Кбит/сек
Каналы : 6 каналов
Channel layout : L R C LFE Ls Rs
Частота : 48,0 КГц
Частота кадров : 31,250 кадров/сек (1536 SPF)
Битовая глубина : 16 бит
Метод сжатия : С потерями
Размер потока : 303 Мбайт (3%)
Язык : Английский
Service Kind : Complete Main
Default : Нет
Forced : Нет
Текст #1
Идентификатор : 6
Формат : UTF-8
Идентификатор кодека : S_TEXT/UTF8
Идентификатор кодека/Информация : UTF-8 Plain Text
Язык : Русский
Default : Нет
Forced : Нет
Текст #2
Идентификатор : 7
Формат : UTF-8
Идентификатор кодека : S_TEXT/UTF8
Идентификатор кодека/Информация : UTF-8 Plain Text
Язык : Английский
Default : Нет
Forced : Нет
Меню
00:00:00.000 : en:Chapter 01
00:06:19.208 : en:Chapter 02
00:11:47.666 : en:Chapter 03
00:21:01.208 : en:Chapter 04
00:29:34.291 : en:Chapter 05
00:41:16.750 : en:Chapter 06
00:46:18.791 : en:Chapter 07
00:53:49.166 : en:Chapter 08
01:02:28.166 : en:Chapter 09
01:08:34.125 : en:Chapter 10
01:21:55.958 : en:Chapter 11
01:30:56.916 : en:Chapter 12

Скриншоты



[Цитировать]



Показать сообщения:    

Текущее время: 30-Ноя 11:07

Часовой пояс: UTC + 6


Вы не можете начинать темы
Вы не можете отвечать на сообщения
Вы не можете редактировать свои сообщения
Вы не можете удалять свои сообщения
Вы не можете голосовать в опросах
Вы не можете прикреплять файлы к сообщениям
Вы не можете скачивать файлы

!ВНИМАНИЕ!
Сайт не предоставляет электронные версии произведений, а занимается лишь коллекционированием и каталогизацией ссылок, присылаемых и публикуемых на форуме нашими читателями. Если вы являетесь правообладателем какого-либо представленного материала и не желаете, чтобы ссылка на него находилась в нашем каталоге, свяжитесь с нами, и мы незамедлительно удалим ее. Файлы для обмена на трекере предоставлены пользователями сайта, и администрация не несет ответственности за их содержание. Просьба не заливать файлы, защищенные авторскими правами, а также файлы нелегального содержания!