***Уважаемые пользователи и гости !!! Сайт переехал на новый домен Torrents-club.info. Просьба изменить ваши закладки! ***
 
[ Сегодня идет свободное скачивание без начисления Download ]


Статистика раздачи
Нет
 
   
 
 
 
Эксперт [1-2 серии из 2] (2017) WEB-DLRip Оригинальное название: Эксперт
Год выпуска: 2017
Жанр: Остросюжетный криминал
Выпущено: Россия, ООО Киностудия "Кит", ООО Эн Джи Продакшн
Режиссер: Владимир Фатьянов
В ролях: Павел Чинарёв, Александра Богданова, Игорь Лифанов, Андрей Стоянов, Тимур Ефременков, Станислав Эрдлей, Александр Кузнецов, Татьяна Шумова, Климентий Бердинский
О фильме: Лучшего специалиста в области безопасности Андрея Градова обвиняют в ограблении банка «Бастион», чью систему защиты он недавно проверял. Его заключают под стражу, но Градов сидеть за решеткой не намерен. Он понимает: чтобы оказаться на свободе, ему самому придется доказывать свою невиновность. Вместе с сокамерником Сергеем он сбегает из СИЗО. Попутчик не верит в правоту Андрея и угрожает ему, требуя поделиться украденными деньгами. Градову удается «оторваться» от сокамерника и оперативника, ведущего его дело...Стремясь вывести на чистую воду настоящего грабителя, Андрей идет на опасную сделку...
Файл:
Качество: WEB-DLRip
Видео: XviD, ~ 1600 Кбит/с, 720x368
Аудио: AC3, 2 ch, 192 Кбит/с
Продолжительность: 2 х ~ 00:48:00
Язык: Русский
Доп. ин.-ция

MediaInfo:

Общее
Полное имя : D:\моё видио\Эксперт (2018)..WEB-DLRip.Files-x\1-я серия _Эксперт (2018)..WEB-DLRip.Files-x.avi
Формат : AVI
Формат/Информация : Audio Video Interleave
Размер файла : 594 Мбайт
Продолжительность : 48 м.
Общий поток : 1702 Кбит/сек
Программа кодирования : VirtualDubMod 1.5.10.3 | www.virtualdub-fr.org || (build 2550/release)
Библиотека кодирования : VirtualDubMod build 2550/release
Видео
Идентификатор : 0
Формат : MPEG-4 Visual
Профиль формата : Advanced Simple@L5
Параметр BVOP формата : 1
Параметр QPel формата : Нет
Параметр GMC формата : Без точки перехода
Параметр матрицы формата : Выборочная
Идентификатор кодека : XVID
Идентификатор кодека/Подсказка : XviD
Продолжительность : 48 м.
Битрейт : 1500 Кбит/сек
Ширина : 720 пикселей
Высота : 368 пикселей
Соотношение сторон : 1,957
Частота кадров : 25,000 кадров/сек
Цветовое пространство : YUV
Субдискретизация насыщенности : 4:2:0
Битовая глубина : 8 бит
Тип развёртки : Прогрессивная
Метод сжатия : С потерями
Бит/(Пиксели*Кадры) : 0.226
Размер потока : 524 Мбайт (88%)
Библиотека кодирования : XviD 73
Аудио
Идентификатор : 1
Формат : AC-3
Формат/Информация : Audio Coding 3
Расширение режима : CM (complete main)
Параметр Endianness формата : Big
Идентификатор кодека : 2000
Продолжительность : 48 м.
Вид битрейта : Постоянный
Битрейт : 192 Кбит/сек
Каналы : 2 канала
Расположение каналов : Front: L R
Частота : 48,0 КГц
Битовая глубина : 16 бит
Метод сжатия : С потерями
Размер потока : 67,1 Мбайт (11%)
Выравнивание : Разделение по промежуткам
Продолжительность промежутка : 40 мс. (1,00 видеокадр)
Время предзагрузки промежутка : 500 мс.

Скриншоты

Добавлены 1-2 серии.
Фильм залит полностью.

[Цитировать]



Показать сообщения:    

Текущее время: 28-Ноя 01:17

Часовой пояс: UTC + 6


Вы не можете начинать темы
Вы не можете отвечать на сообщения
Вы не можете редактировать свои сообщения
Вы не можете удалять свои сообщения
Вы не можете голосовать в опросах
Вы не можете прикреплять файлы к сообщениям
Вы не можете скачивать файлы

!ВНИМАНИЕ!
Сайт не предоставляет электронные версии произведений, а занимается лишь коллекционированием и каталогизацией ссылок, присылаемых и публикуемых на форуме нашими читателями. Если вы являетесь правообладателем какого-либо представленного материала и не желаете, чтобы ссылка на него находилась в нашем каталоге, свяжитесь с нами, и мы незамедлительно удалим ее. Файлы для обмена на трекере предоставлены пользователями сайта, и администрация не несет ответственности за их содержание. Просьба не заливать файлы, защищенные авторскими правами, а также файлы нелегального содержания!