***Уважаемые пользователи и гости !!! Сайт переехал на новый домен Torrents-club.info. Просьба изменить ваши закладки! ***
 
[ Сегодня идет свободное скачивание без начисления Download ]


Статистика раздачи
Нет
 
   
 
 
 
Ненастье [1-11 серии из 11] (2018) HDTVRip Оригинальное название: Ненастье
Год выпуска: 2018
Жанр: Драма, экранизация
Выпущено: Россия, Москино
Режиссер: Сергей Урсуляк
В ролях: Александр Яценко, Александр Горбатов (II), Татьяна Лялина, Сергей Маковецкий, Серафима Красникова, Сослан Фидаров, Антон Филипенко, Евгений Смирнов-Иваницкий, Олег Кассин, Александр Голубев, Олег Байкулов, Тарас Епифанцев, Алексей Дякин, Никита Тезов, Александр Кузнецов (IX), Максим Деричев, Татьяна Сомова, Иван Куколев, Валерий Карпов (III)
О фильме: Они вернулись в свою страну после Афганистана, но страна стала совсем другой. Они рассчитывают только на себя. Они доверяют только друг другу. В одном из уральских городов совершено дерзкое ограбление! Похищены 140 миллионов рублей! Грабитель — бывший «афганец» Герман Неволин, водитель инкассаторской машины. Что толкнуло его на преступление? Почему он принёс в жертву всё, чем дорожил — дружбу, любовь, и теперь вынужден скрываться в заброшенной деревушке Ненастье?..
Файл:
Качество: HDTVRip
Видео: XviD, ~ 1500 Кбит/с, 720x400
Аудио: AC3 , 2 ch, 192 Кбит/с
Продолжительность: 11 x ~ 00:45:00
Язык: Русский
Доп. ин.-ция

Внимание! Раздача ведётся путём добавления новых серий

Раздача ведётся путём добавления новых серий, при каждом добавлении создаётся новый торрент. Чтобы начать докачку новой серии, пользователям необходимо сделать следующее:
- Остановить скачивание.
- Удалить старый торрент у себя из клиента (старые серии удалять не надо).
- Скачать новый торрент и запустить его у себя в клиенте вместо старого, при этом указать клиенту путь в старую папку куда и должно происходить скачивание новых серий.
Ваш клиент при этом должен произвести хеширование (проверку) старой папки (если не производит сам - помогите ему сделать это), и будет докачивать только те серии которых у вас ещё нет. Старые серии при этом не удаляются, а продолжают раздаваться!

MediaInfo:

Общее
Полное имя : D:\моё видио\Ненастье.2018 .HDTVip.Files-x\01.Ненастье.2018 .HDTVip.Files-x.avi
Формат : AVI
Формат/Информация : Audio Video Interleave
Размер файла : 555 Мбайт
Продолжительность : 45 м.
Общий поток : 1699 Кбит/сек
Программа кодирования : VirtualDubMod 1.5.10.3 | www.virtualdub-fr.org || (build 2550/release)
Библиотека кодирования : VirtualDubMod build 2550/release
Видео
Идентификатор : 0
Формат : MPEG-4 Visual
Профиль формата : Advanced Simple@L5
Параметр BVOP формата : 1
Параметр QPel формата : Нет
Параметр GMC формата : Без точки перехода
Параметр матрицы формата : Выборочная
Идентификатор кодека : XVID
Идентификатор кодека/Подсказка : XviD
Продолжительность : 45 м.
Битрейт : 1497 Кбит/сек
Ширина : 720 пикселей
Высота : 400 пикселей
Соотношение сторон : 16:9
Частота кадров : 25,000 кадров/сек
Цветовое пространство : YUV
Субдискретизация насыщенности : 4:2:0
Битовая глубина : 8 бит
Тип развёртки : Прогрессивная
Метод сжатия : С потерями
Бит/(Пиксели*Кадры) : 0.208
Размер потока : 489 Мбайт (88%)
Библиотека кодирования : XviD 73
Аудио
Идентификатор : 1
Формат : AC-3
Формат/Информация : Audio Coding 3
Расширение режима : CM (complete main)
Параметр Endianness формата : Big
Идентификатор кодека : 2000
Продолжительность : 45 м.
Вид битрейта : Постоянный
Битрейт : 192 Кбит/сек
Каналы : 2 канала
Расположение каналов : Front: L R
Частота : 48,0 КГц
Битовая глубина : 16 бит
Метод сжатия : С потерями
Размер потока : 62,8 Мбайт (11%)
Выравнивание : Разделение по промежуткам
Продолжительность промежутка : 40 мс. (1,00 видеокадр)
Время предзагрузки промежутка : 500 мс.

Скриншоты

Добавлены 1-11 серии.
Сериал залит полностью.


Последний раз редактировалось: papa1951deda (2018-11-16 18:13), всего редактировалось 2 раз(а)

[Цитировать]

Добавлены 7-11 серии.

[Цитировать]



Показать сообщения:    

Текущее время: 24-Май 00:46

Часовой пояс: UTC + 6


Вы не можете начинать темы
Вы не можете отвечать на сообщения
Вы не можете редактировать свои сообщения
Вы не можете удалять свои сообщения
Вы не можете голосовать в опросах
Вы не можете прикреплять файлы к сообщениям
Вы не можете скачивать файлы

!ВНИМАНИЕ!
Сайт не предоставляет электронные версии произведений, а занимается лишь коллекционированием и каталогизацией ссылок, присылаемых и публикуемых на форуме нашими читателями. Если вы являетесь правообладателем какого-либо представленного материала и не желаете, чтобы ссылка на него находилась в нашем каталоге, свяжитесь с нами, и мы незамедлительно удалим ее. Файлы для обмена на трекере предоставлены пользователями сайта, и администрация не несет ответственности за их содержание. Просьба не заливать файлы, защищенные авторскими правами, а также файлы нелегального содержания!