***Уважаемые пользователи и гости !!! Сайт переехал на новый домен Torrents-club.info. Просьба изменить ваши закладки! ***
 
[ Сегодня идет свободное скачивание без начисления Download ]


Статистика раздачи
Нет
 
   
 
 
 
Дежурный врач [3 сезон: 1-19 серии] (2017) WEB-DLRip
Оригинальное название: Дежурный врач
Год выхода: 2017
Жанр: Драма, мелодрама, медицина
Выпущено: Украина, FILM.UA, Произведено ООО "Фильм Ю ЭЙ Продакше" по заказу ООО ТРК "Украина"
Режиссер: Константин Денесюк, Александр Онуфриев, Сергей Сотниченко
В ролях: Михаил Жонин, Ирина Ткаленко, Руслан Сокольник, Надежда Левченко, Лилия Майборода, Виктория Лушникова, Валентина Вовченко, Леонид Попадько, Елена Новикова (III), Светлана Князева, Михаил Романов (II), Богдан Олейник, Екатерина Духленко, Виктория Левченко (III), Виктор Данилюк, Виктор Полторацкий, Ирина Малыгина, Вероника Лукьяненко, Екатерина Марченко, Артем Каюн, Кристина Мельниченко, Владимир Мельник, Андрей Мерзликин (II), Николай Калинин (II), Мария Тарасова (II), Ева Шевченко-Головко, Вячеслав Стасенко, Алиса Лукшина, Александр Онуфриев, Вероника Братусина
О фильме: В третьем сезоне поклонников ждут новые историй из жизни четверых врачей больницы скорой помощи и их родственников (но после событий произошедших в третьем сезоне их осталось тока трое…), которые ежедневно совершают героические поступки — спасают жизни людей. Доктора становятся не просто свидетелями, но заложниками драм и тайн своих пациентов, помогая им не только выздороветь, но и принять жизненно важные решения. Кто в больнице устроил интернет аукцион, для того чтобы собрать деньги на дорогую операцию? К чему могут привести бои без правел, и на кого стали ставить ставки, что бы немного подзаработать? Чьи одноклассники приходили в больницу? Кому понадобились деньги, на новый учебник? Кого попросили написать стихи? Кто стал ходить в фмтнес-центр на ёгу? Чья сестра попала на больничную койку? Особое внимание в третьем сезоне создатели уделили личным историям медсестры Семеновны — персонажу нашей блестящей Лилии Майбороды, которая была правой рукой врача Мазура. «У нее много забавных и лирических историй, связанных с ее поклонниками. И как раз для Семеновны мы сделали сразу несколько таких историй, в которых она привлекательна, у нее влюбляются мужчины, с ней флиртуют и дарят романтические подарки (цветы, нижнее бельё). Надеюсь, что зрителям это тоже будет приятно». Кто такая доверенная особа, которая за всеми следила в больнице, а потом с помощью неё Иван Петрович выписывал всем штрафы?Кто гадал на картах таро? Кроме динамики, отличительной чертой третьего сезона "Дежурного врача" будут "истории-оборотни". "Это когда часть серии наши врачи будут идти к одному диагнозу, а под конец всплывет совсем другой". Иными появятся и любимые актеры. Врач Соболь, станет мягче, более уязвимой: "Если сначала Соболь была "железной леди", которая могла легко рубануть с плеча, то изменения в личной жизни сделали ее более мягкой…
Файл:
Качество: WEB-DLRip
Видео: XviD, ~ 1677 Кбит/с, 720x400
Аудио: AC3, 2 ch, 192 Кбит/с
Продолжительность: 19 x ~ 00:45:00
Язык: Русский
Доп. ин.-ция

Внимание! Раздача ведётся путём добавления новых серий

Раздача ведётся путём добавления новых серий, при каждом добавлении создаётся новый торрент. Чтобы начать докачку новой серии, пользователям необходимо сделать следующее:
- Остановить скачивание.
- Удалить старый торрент у себя из клиента (старые серии удалять не надо).
- Скачать новый торрент и запустить его у себя в клиенте вместо старого, при этом указать клиенту путь в старую папку куда и должно происходить скачивание новых серий.
Ваш клиент при этом должен произвести хеширование (проверку) старой папки (если не производит сам - помогите ему сделать это), и будет докачивать только те серии которых у вас ещё нет. Старые серии при этом не удаляются, а продолжают раздаваться!

MediaInfo:

Общее
Полное имя : D:\моё видио\Дежурный врач.s03.2017.WEB-DLRip.Files-x\84.Дежурный врач.s03.E03.2017.WEB-DLRip.Files-x.avi
Формат : AVI
Формат/Информация : Audio Video Interleave
Размер файла : 601 Мбайт
Продолжительность : 44 м.
Общий поток : 1898 Кбит/сек
Программа кодирования : VirtualDubMod 1.5.10.3 | www.virtualdub-fr.org || (build 2550/release)
Библиотека кодирования : VirtualDubMod build 2550/release
Видео
Идентификатор : 0
Формат : MPEG-4 Visual
Профиль формата : Advanced Simple@L5
Параметр BVOP формата : 1
Параметр QPel формата : Нет
Параметр GMC формата : Без точки перехода
Параметр матрицы формата : Выборочная
Идентификатор кодека : XVID
Идентификатор кодека/Подсказка : XviD
Продолжительность : 44 м.
Битрейт : 1696 Кбит/сек
Ширина : 720 пикселей
Высота : 400 пикселей
Соотношение сторон : 16:9
Частота кадров : 25,000 кадров/сек
Цветовое пространство : YUV
Субдискретизация насыщенности : 4:2:0
Битовая глубина : 8 бит
Тип развёртки : Прогрессивная
Метод сжатия : С потерями
Бит/(Пиксели*Кадры) : 0.236
Размер потока : 537 Мбайт (89%)
Библиотека кодирования : XviD 73
Аудио
Идентификатор : 1
Формат : AC-3
Формат/Информация : Audio Coding 3
Расширение режима : CM (complete main)
Параметр Endianness формата : Big
Идентификатор кодека : 2000
Продолжительность : 44 м.
Вид битрейта : Постоянный
Битрейт : 192 Кбит/сек
Каналы : 2 канала
Расположение каналов : Front: L R
Частота : 48,0 КГц
Битовая глубина : 16 бит
Метод сжатия : С потерями
Размер потока : 60,8 Мбайт (10%)
Выравнивание : Разделение по промежуткам
Продолжительность промежутка : 40 мс. (1,00 видеокадр)
Время предзагрузки промежутка : 500 мс.

Скриншоты

Добавлены 1-19 (81-100) серии.

[Цитировать]



Показать сообщения:    

Текущее время: 22-Май 10:11

Часовой пояс: UTC + 6


Вы не можете начинать темы
Вы не можете отвечать на сообщения
Вы не можете редактировать свои сообщения
Вы не можете удалять свои сообщения
Вы не можете голосовать в опросах
Вы не можете прикреплять файлы к сообщениям
Вы не можете скачивать файлы

!ВНИМАНИЕ!
Сайт не предоставляет электронные версии произведений, а занимается лишь коллекционированием и каталогизацией ссылок, присылаемых и публикуемых на форуме нашими читателями. Если вы являетесь правообладателем какого-либо представленного материала и не желаете, чтобы ссылка на него находилась в нашем каталоге, свяжитесь с нами, и мы незамедлительно удалим ее. Файлы для обмена на трекере предоставлены пользователями сайта, и администрация не несет ответственности за их содержание. Просьба не заливать файлы, защищенные авторскими правами, а также файлы нелегального содержания!