***Уважаемые пользователи и гости !!! Сайт переехал на новый домен Torrents-club.info. Просьба изменить ваши закладки! ***
 
[ Сегодня идет свободное скачивание без начисления Download ]


Статистика раздачи
Нет
 
   
 
 
 
На районе - Информация
Производство: Россия, DK Entertainment, Марс Медиа Энтертейнмент
Жанр: Драма
Режиссер: Ольга Зуева
Продюсер: Рубен Дишдишян, Данила Козловский, Сергей Бобза
Актеры: Данила Козловский, Илья Маланин, Елена Оболенская, Ангелина Стречина, Ольга Зуева, Андрей Амшинский, Эдгар Гизатуллин, Александр Мизев, Владимир Хацкевич, Владимир Афанасьев
Описание:
Вова и его лучший друг Киса зарабатывают деньги, занимаясь нелегальной деятельностью. Их жизнь проходит на волне веселья, в погоне за острыми ощущениями и кратковременными удовольствиями, пока очередной заказ не приводит их дружбу к главному испытанию, заставив каждого ответить на вопрос: кто ты?


Возраст: 16+ (зрителям, достигшим 16 лет)
Дата мировой премьеры: 5 октября 2018
Дата российской премьеры: 4 октября 2018, «Централ Партнершип»
Продолжительность: 01:31:26
Перевод: Не требуется (Русский) iTunes
Файл
Качество видео: WEB-DL
Видео: AVC/H.264, 1920x806 (2.40:1), 4547 kbps
Аудио: АС3, 6 ch, 48 kHz, 384 Kbps | Русский
Субтитры: Отсутствуют

Mediainfo:

Общее
Уникальный идентификатор : 305066408513818241959096846382788356753 (0xE581A732C38459B545EA04DFA21DAA91)
Полное имя : D:\На.районе.2018.WEB-DL.[1080p].NNMClub.mkv
Формат : Matroska
Версия формата : Version 4
Размер файла : 3,15 Гбайт
Продолжительность : 1 ч. 31 м.
Общий поток : 4933 Кбит/сек
Дата кодирования : UTC 2018-11-15 07:24:00
Программа кодирования : mkvmerge v27.0.0 ('Metropolis') 64-bit
Библиотека кодирования : libebml v1.3.6 + libmatroska v1.4.9
Видео
Идентификатор : 1
Формат : AVC
Формат/Информация : Advanced Video Codec
Профиль формата : High@L4
Настройки формата : CABAC / 5 Ref Frames
Параметр CABAC формата : Да
Параметр RefFrames формата : 5 кадров
Идентификатор кодека : V_MPEG4/ISO/AVC
Продолжительность : 1 ч. 31 м.
Битрейт : 4547 Кбит/сек
Ширина : 1920 пикселей
Высота : 806 пикселей
Соотношение сторон : 2,40:1
Режим частоты кадров : Постоянный
Частота кадров : 25,000 кадров/сек
Цветовое пространство : YUV
Субдискретизация насыщенности : 4:2:0
Битовая глубина : 8 бит
Тип развёртки : Прогрессивная
Бит/(Пиксели*Кадры) : 0.118
Размер потока : 2,90 Гбайт (92%)
Язык : English
Default : Да
Forced : Нет
Цветовой диапазон : Limited
Основные цвета : BT.709
Характеристики трансфера : BT.709
Коэффициенты матрицы : BT.709
Аудио
Идентификатор : 2
Формат : AC-3
Формат/Информация : Audio Coding 3
Коммерческое название : Dolby Digital
Идентификатор кодека : A_AC3
Продолжительность : 1 ч. 31 м.
Вид битрейта : Постоянный
Битрейт : 384 Кбит/сек
Каналы : 6 каналов
Channel layout : L R C LFE Ls Rs
Частота : 48,0 КГц
Частота кадров : 31,250 кадров/сек (1536 SPF)
Битовая глубина : 16 бит
Метод сжатия : С потерями
Размер потока : 251 Мбайт (8%)
Язык : Russian
ServiceKind/String : Complete Main
Default : Да
Forced : Нет
Меню
00:00:00.000 : en:Глава 1
00:05:28.720 : en:Глава 2
00:13:16.920 : en:Глава 3
00:18:23.320 : en:Глава 4
00:23:30.200 : en:Глава 5
00:30:55.280 : en:Глава 6
00:37:49.320 : en:Глава 7
00:41:40.160 : en:Глава 8
00:46:28.800 : en:Глава 9
00:50:46.319 : en:Глава 10
00:57:40.239 : en:Глава 11
01:05:04.359 : en:Глава 12
01:11:51.199 : en:Глава 13
01:17:52.359 : en:Глава 14
01:22:54.839 : en:Глава 15

Скриншоты

Скриншоты:

[Цитировать]



Показать сообщения:    

Текущее время: 24-Май 00:24

Часовой пояс: UTC + 6


Вы не можете начинать темы
Вы не можете отвечать на сообщения
Вы не можете редактировать свои сообщения
Вы не можете удалять свои сообщения
Вы не можете голосовать в опросах
Вы не можете прикреплять файлы к сообщениям
Вы не можете скачивать файлы

!ВНИМАНИЕ!
Сайт не предоставляет электронные версии произведений, а занимается лишь коллекционированием и каталогизацией ссылок, присылаемых и публикуемых на форуме нашими читателями. Если вы являетесь правообладателем какого-либо представленного материала и не желаете, чтобы ссылка на него находилась в нашем каталоге, свяжитесь с нами, и мы незамедлительно удалим ее. Файлы для обмена на трекере предоставлены пользователями сайта, и администрация не несет ответственности за их содержание. Просьба не заливать файлы, защищенные авторскими правами, а также файлы нелегального содержания!