***Уважаемые пользователи и гости !!! Сайт переехал на новый домен Torrents-club.info. Просьба изменить ваши закладки! ***
 
[ Сегодня идет свободное скачивание без начисления Download ]


Статистика раздачи
Нет
 
   
 
 
 
Jean-Michel Jarre Equinoxe Infinity- Жанр: Ambient, New-Age, Experimental
Издание: Columbia - 19075876442
Продолжительность: 00:39:55
Кодек: FLAC
Битрейт: Lossless
Тип рипа: tracks+.cue
Треклист:
01. The Watchers (Movement 1) (02:58)
02. Flying Totems (Movement 2) (03:54)
03. Robots Don't Cry (Movement 3) (05:44)
04. All That You Leave Behind (Movement 4) (04:01)
05. If The Wind Could Speak (Movement 5) (01:32)
06. Infinity (Movement 6) (04:14)
07. Machines Are Learning (Movement 7) (02:07)
08. The Opening (Movement 8) (04:16)
09. Don’t Look Back (Movement 9) (03:36)
10. Equinoxe Infinity (Movement 10) (07:33)

Отчёт XLD:

X Lossless Decoder version 20170729 (150.3)
XLD extraction logfile from 2018-11-17 19:59:49 +0100
Jean-Michel Jarre / Equinoxe Infinity
Used drive : MATSHITA DVD-R UJ-868 (revision KB19)
Media type : Pressed CD
Ripper mode : XLD Secure Ripper
Disable audio cache : OK for the drive with a cache less than 1375KiB
Make use of C2 pointers : NO
Read offset correction : 102
Max retry count : 20
Gap status : Analyzed, Appended (except HTOA)
TOC of the extracted CD
Track | Start | Length | Start sector | End sector
---------------------------------------------------------
1 | 00:00:00 | 02:58:09 | 0 | 13358
2 | 02:58:09 | 03:53:68 | 13359 | 30901
3 | 06:52:02 | 05:43:72 | 30902 | 56698
4 | 12:35:74 | 04:00:63 | 56699 | 74761
5 | 16:36:62 | 01:32:13 | 74762 | 81674
6 | 18:09:00 | 04:13:60 | 81675 | 100709
7 | 22:22:60 | 02:07:19 | 100710 | 110253
8 | 24:30:04 | 04:16:15 | 110254 | 129468
9 | 28:46:19 | 03:35:63 | 129469 | 145656
10 | 32:22:07 | 07:32:68 | 145657 | 179624
AccurateRip Summary
Disc not found in AccurateRip DB.
All Tracks
Album gain : -7.34 dB
Peak : 0.980652
Statistics
Read error : 0
Jitter error (maybe fixed) : 0
Retry sector count : 0
Damaged sector count : 0
Track 01
Filename : /Users/Lily/[FLAC]/Jean-Michel Jarre - 2018 - Equinoxe Infinity - FLAC/01 - The Watchers (movement 1).flac
Pre-gap length : 00:02:00
Track gain : -6.66 dB
Peak : 0.980621
CRC32 hash (test run) : C780238A
CRC32 hash : C780238A
CRC32 hash (skip zero) : 0305725B
AccurateRip v1 signature : BD54CA96
AccurateRip v2 signature : BB09DF69
->Track not present in AccurateRip database.
Statistics
Read error : 0
Jitter error (maybe fixed) : 0
Retry sector count : 0
Damaged sector count : 0
Track 02
Filename : /Users/Lily/[FLAC]/Jean-Michel Jarre - 2018 - Equinoxe Infinity - FLAC/02 - Flying Totems (movement 2).flac
Track gain : -7.61 dB
Peak : 0.980591
CRC32 hash (test run) : 85004D20
CRC32 hash : 85004D20
CRC32 hash (skip zero) : 93B39EA5
AccurateRip v1 signature : E88A9480
AccurateRip v2 signature : 0F275CE9
->Track not present in AccurateRip database.
Statistics
Read error : 0
Jitter error (maybe fixed) : 0
Retry sector count : 0
Damaged sector count : 0
Track 03
Filename : /Users/Lily/[FLAC]/Jean-Michel Jarre - 2018 - Equinoxe Infinity - FLAC/03 - Robots Don't Cry (movement 3).flac
Track gain : -6.80 dB
Peak : 0.980621
CRC32 hash (test run) : 4526024C
CRC32 hash : 4526024C
CRC32 hash (skip zero) : DBB6EE43
AccurateRip v1 signature : 69B74844
AccurateRip v2 signature : 42051C14
->Track not present in AccurateRip database.
Statistics
Read error : 0
Jitter error (maybe fixed) : 0
Retry sector count : 0
Damaged sector count : 0
Track 04
Filename : /Users/Lily/[FLAC]/Jean-Michel Jarre - 2018 - Equinoxe Infinity - FLAC/04 - All You Leave Behind (movement 4).flac
Track gain : -6.36 dB
Peak : 0.980621
CRC32 hash (test run) : C24F8C99
CRC32 hash : C24F8C99
CRC32 hash (skip zero) : EC6AE52C
AccurateRip v1 signature : 81B45DAD
AccurateRip v2 signature : 9D117D00
->Track not present in AccurateRip database.
Statistics
Read error : 0
Jitter error (maybe fixed) : 0
Retry sector count : 0
Damaged sector count : 0
Track 05
Filename : /Users/Lily/[FLAC]/Jean-Michel Jarre - 2018 - Equinoxe Infinity - FLAC/05 - If The Wind Could Speak (movement 5).flac
Track gain : -6.21 dB
Peak : 0.980621
CRC32 hash (test run) : 1827A91D
CRC32 hash : 1827A91D
CRC32 hash (skip zero) : D93E44D3
AccurateRip v1 signature : E67D557C
AccurateRip v2 signature : 74A8831E
->Track not present in AccurateRip database.
Statistics
Read error : 0
Jitter error (maybe fixed) : 0
Retry sector count : 0
Damaged sector count : 0
Track 06
Filename : /Users/Lily/[FLAC]/Jean-Michel Jarre - 2018 - Equinoxe Infinity - FLAC/06 - Infinity (movement 6).flac
Track gain : -8.74 dB
Peak : 0.980652
CRC32 hash (test run) : 63BB07CF
CRC32 hash : 63BB07CF
CRC32 hash (skip zero) : 36ADB37F
AccurateRip v1 signature : ECA6F597
AccurateRip v2 signature : 44DC8ACA
->Track not present in AccurateRip database.
Statistics
Read error : 0
Jitter error (maybe fixed) : 0
Retry sector count : 0
Damaged sector count : 0
Track 07
Filename : /Users/Lily/[FLAC]/Jean-Michel Jarre - 2018 - Equinoxe Infinity - FLAC/07 - Machines Are Learning (movement 7).flac
Track gain : -7.65 dB
Peak : 0.980621
CRC32 hash (test run) : D81CD8B5
CRC32 hash : D81CD8B5
CRC32 hash (skip zero) : 8BCB7E26
AccurateRip v1 signature : 3916CD22
AccurateRip v2 signature : 46F20D27
->Track not present in AccurateRip database.
Statistics
Read error : 0
Jitter error (maybe fixed) : 0
Retry sector count : 0
Damaged sector count : 0
Track 08
Filename : /Users/Lily/[FLAC]/Jean-Michel Jarre - 2018 - Equinoxe Infinity - FLAC/08 - The Opening (movement 8).flac
Track gain : -7.08 dB
Peak : 0.980621
CRC32 hash (test run) : C0FDE4AD
CRC32 hash : C0FDE4AD
CRC32 hash (skip zero) : D23D845D
AccurateRip v1 signature : 77B91162
AccurateRip v2 signature : FCC5F81F
->Track not present in AccurateRip database.
Statistics
Read error : 0
Jitter error (maybe fixed) : 0
Retry sector count : 0
Damaged sector count : 0
Track 09
Filename : /Users/Lily/[FLAC]/Jean-Michel Jarre - 2018 - Equinoxe Infinity - FLAC/09 - Don't Look Back (movement 9).flac
Track gain : -8.54 dB
Peak : 0.980621
CRC32 hash (test run) : 361C59A8
CRC32 hash : 361C59A8
CRC32 hash (skip zero) : 808597F8
AccurateRip v1 signature : 390CFFD1
AccurateRip v2 signature : BF6CF50B
->Track not present in AccurateRip database.
Statistics
Read error : 0
Jitter error (maybe fixed) : 0
Retry sector count : 0
Damaged sector count : 0
Track 10
Filename : /Users/Lily/[FLAC]/Jean-Michel Jarre - 2018 - Equinoxe Infinity - FLAC/10 - Equinoxe Infinity (movement 10).flac
Track gain : -6.53 dB
Peak : 0.980621
CRC32 hash (test run) : E430F557
CRC32 hash : E430F557
CRC32 hash (skip zero) : 5D3CDC04
AccurateRip v1 signature : 1B4196E4
AccurateRip v2 signature : 7048BDD3
->Track not present in AccurateRip database.
Statistics
Read error : 0
Jitter error (maybe fixed) : 0
Retry sector count : 0
Damaged sector count : 0
No errors occurred
End of status report
-----BEGIN XLD SIGNATURE-----
M2U1uNH2PYZ4uWwhDsj474uA.aUAqlp7jHv8v.65kyTIN8s34_8K8QAWYHrLrQmQJEPE4YYkB1GCiUHtlg2PF64slK1q_8Vcxlj35_a
-----END XLD SIGNATURE-----

Cue Sheet (.cue):

TITLE "Equinoxe Infinity"
PERFORMER "Jean-Michel Jarre"
CATALOG 0190758764429
REM GENRE "Electronic"
REM DATE "2018"
REM DISCNUMBER 1
REM TOTALDISCS 1
REM DISCID 8A095B0A
REM REPLAYGAIN_ALBUM_GAIN -7.34 dB
REM REPLAYGAIN_ALBUM_PEAK 0.980652
FILE "01 - The Watchers (movement 1).flac" WAVE
TRACK 01 AUDIO
TITLE "The Watchers (movement 1)"
PERFORMER "Jean-Michel Jarre"
SONGWRITER "Jean-Michel Jarre"
ISRC FR0LO1800024
REM REPLAYGAIN_TRACK_GAIN -6.66 dB
REM REPLAYGAIN_TRACK_PEAK 0.980621
INDEX 01 00:00:00
FILE "02 - Flying Totems (movement 2).flac" WAVE
TRACK 02 AUDIO
TITLE "Flying Totems (movement 2)"
PERFORMER "Jean-Michel Jarre"
SONGWRITER "Jean-Michel Jarre"
ISRC FR0LO1800025
REM REPLAYGAIN_TRACK_GAIN -7.61 dB
REM REPLAYGAIN_TRACK_PEAK 0.980591
INDEX 01 00:00:00
FILE "03 - Robots Don't Cry (movement 3).flac" WAVE
TRACK 03 AUDIO
TITLE "Robots Don't Cry (movement 3)"
PERFORMER "Jean-Michel Jarre"
SONGWRITER "Jean-Michel Jarre"
ISRC FR0LO1800026
REM REPLAYGAIN_TRACK_GAIN -6.80 dB
REM REPLAYGAIN_TRACK_PEAK 0.980621
INDEX 01 00:00:00
FILE "04 - All You Leave Behind (movement 4).flac" WAVE
TRACK 04 AUDIO
TITLE "All You Leave Behind (movement 4)"
PERFORMER "Jean-Michel Jarre"
SONGWRITER "Jean-Michel Jarre"
ISRC FR0LO1800027
REM REPLAYGAIN_TRACK_GAIN -6.36 dB
REM REPLAYGAIN_TRACK_PEAK 0.980621
INDEX 01 00:00:00
FILE "05 - If The Wind Could Speak (movement 5).flac" WAVE
TRACK 05 AUDIO
TITLE "If The Wind Could Speak (movement 5)"
PERFORMER "Jean-Michel Jarre"
SONGWRITER "Jean-Michel Jarre"
ISRC FR0LO1800034
REM REPLAYGAIN_TRACK_GAIN -6.21 dB
REM REPLAYGAIN_TRACK_PEAK 0.980621
INDEX 01 00:00:00
FILE "06 - Infinity (movement 6).flac" WAVE
TRACK 06 AUDIO
TITLE "Infinity (movement 6)"
PERFORMER "Jean-Michel Jarre"
SONGWRITER "Jean-Michel Jarre"
ISRC FR0LO1800029
REM REPLAYGAIN_TRACK_GAIN -8.74 dB
REM REPLAYGAIN_TRACK_PEAK 0.980652
INDEX 01 00:00:00
FILE "07 - Machines Are Learning (movement 7).flac" WAVE
TRACK 07 AUDIO
TITLE "Machines Are Learning (movement 7)"
PERFORMER "Jean-Michel Jarre"
SONGWRITER "Jean-Michel Jarre"
ISRC FR0LO1800030
REM REPLAYGAIN_TRACK_GAIN -7.65 dB
REM REPLAYGAIN_TRACK_PEAK 0.980621
INDEX 01 00:00:00
FILE "08 - The Opening (movement 8).flac" WAVE
TRACK 08 AUDIO
TITLE "The Opening (movement 8)"
PERFORMER "Jean-Michel Jarre"
SONGWRITER "Jean-Michel Jarre"
ISRC FR0LO1800031
REM REPLAYGAIN_TRACK_GAIN -7.08 dB
REM REPLAYGAIN_TRACK_PEAK 0.980621
INDEX 01 00:00:00
FILE "09 - Don't Look Back (movement 9).flac" WAVE
TRACK 09 AUDIO
TITLE "Don't Look Back (movement 9)"
PERFORMER "Jean-Michel Jarre"
SONGWRITER "Jean-Michel Jarre"
ISRC FR0LO1800032
REM REPLAYGAIN_TRACK_GAIN -8.54 dB
REM REPLAYGAIN_TRACK_PEAK 0.980621
INDEX 01 00:00:00
FILE "10 - Equinoxe Infinity (movement 10).flac" WAVE
TRACK 10 AUDIO
TITLE "Equinoxe Infinity (movement 10)"
PERFORMER "Jean-Michel Jarre"
SONGWRITER "Jean-Michel Jarre"
ISRC FR0LO1800033
REM REPLAYGAIN_TRACK_GAIN -6.53 dB
REM REPLAYGAIN_TRACK_PEAK 0.980621
INDEX 01 00:00:00

Discogs

[Цитировать]



Показать сообщения:    

Текущее время: 27-Май 18:38

Часовой пояс: UTC + 6


Вы не можете начинать темы
Вы не можете отвечать на сообщения
Вы не можете редактировать свои сообщения
Вы не можете удалять свои сообщения
Вы не можете голосовать в опросах
Вы не можете прикреплять файлы к сообщениям
Вы не можете скачивать файлы

!ВНИМАНИЕ!
Сайт не предоставляет электронные версии произведений, а занимается лишь коллекционированием и каталогизацией ссылок, присылаемых и публикуемых на форуме нашими читателями. Если вы являетесь правообладателем какого-либо представленного материала и не желаете, чтобы ссылка на него находилась в нашем каталоге, свяжитесь с нами, и мы незамедлительно удалим ее. Файлы для обмена на трекере предоставлены пользователями сайта, и администрация не несет ответственности за их содержание. Просьба не заливать файлы, защищенные авторскими правами, а также файлы нелегального содержания!