***Уважаемые пользователи и гости !!! Сайт переехал на новый домен Torrents-club.info. Просьба изменить ваши закладки! ***
 
[ Сегодня идет свободное скачивание без начисления Download ]


Статистика раздачи
Нет
 
   
 
 
 
Инуясики
Inuyashiki
- Информация
Производство: Япония / Annex Digital, Picture Element, Solid Arts, Voxel
Жанр: Боевик, фантастика, триллер, драма
Режиссер: Синсуке Сато
Актеры: Норитакэ Кинаси, Такэру Сато, Каната Хонго, Аяка Миёси, Наюта Фукудзаки, Мари Хамада, Фуми Никайдо, Юки Саито, Юсукэ Исэя, Сарии Икэгами
Описание:
Пожилой японец предпенсионного возраста узнает, что смертельно болен. Рассказать об этом равнодушному семейству он не может, поэтому тихо плачется в шерстяную жилетку приблудившегося пса. В этот момент в небе появляются странные огни, старик слепнет, теряет сознание, а когда приходит в себя, оказывается, что неведомая сила превратила его в человекоподобного боевого робота. Теперь дедуля Инуясики способен летать, превращать руку в пулемёт, но предпочитает вылечивать смертельно больных детей. И вот беда: похожие способности получил старшеклассник Сисигами, циник и нигилист, без малейшего сожаления убивающий направо и налево.


Дата мировой премьеры: 10 апреля 2018
Продолжительность: 02:06:12
Перевод: Любительский двухголосый, закадровый (XDUB DORAMA)
Файл
Качество видео: WEBRip Сэмпл
Видео: XviD, 720x304, ~1454 Kbps
Аудио: AC-3, 2 ch, 192 Kbps
Субтитры: Отсутствуют

MediaInfo:

Общее
Полное имя : E:\Inuyashiki 2018 WEBRip.avi
Формат : AVI
Формат/Информация : Audio Video Interleave
Размер файла : 1,46 Гбайт
Продолжительность : 2 ч. 6 м.
Общий поток : 1655 Кбит/сек
Программа кодирования : VirtualDubMod 1.5.10.3 || (build 2550/release)
Библиотека кодирования : VirtualDubMod build 2550/release
Видео
Идентификатор : 0
Формат : MPEG-4 Visual
Профиль формата : Advanced Simple@L5
Настройки формата : BVOP1 / Custom Matrix
Параметр BVOP формата : 1
Параметр QPel формата : Нет
Параметр GMC формата : Без точки перехода
Параметр матрицы формата : Выборочная
Идентификатор кодека : XVID
Идентификатор кодека/Подсказка : XviD
Продолжительность : 2 ч. 6 м.
Битрейт : 1454 Кбит/сек
Ширина : 720 пикселей
Высота : 304 пикселя
Соотношение сторон : 2,35:1
Частота кадров : 23,976 (24000/1001) кадра/сек
Частота кадров в оригинале : 23,976 (23976/1000) кадра/сек
Цветовое пространство : YUV
Субдискретизация насыщенности : 4:2:0
Битовая глубина : 8 бит
Тип развёртки : Прогрессивная
Метод сжатия : С потерями
Бит/(Пиксели*Кадры) : 0.277
Размер потока : 1,28 Гбайт (88%)
Библиотека кодирования : XviD 1.2.1 (UTC 2008-12-04)
Аудио
Идентификатор : 1
Формат : AC-3
Формат/Информация : Audio Coding 3
Идентификатор кодека : 2000
Продолжительность : 2 ч. 6 м.
Вид битрейта : Постоянный
Битрейт : 192 Кбит/сек
Каналы : 2 канала
Расположение каналов : Front: L R
Частота : 48,0 КГц
Частота кадров : 31,250 кадров/сек (1536 SPF)
Битовая глубина : 16 бит
Метод сжатия : С потерями
Размер потока : 173 Мбайт (12%)
Выравнивание : Разделение по промежуткам
Продолжительность промежутка : 42 мс. (1,00 видеокадр)
Время предзагрузки промежутка : 500 мс.
ServiceKind/String : Complete Main

Скриншоты

Скриншоты:

[Цитировать]

Топик был перенесен из форума Новинки кинопроката 2018 в форум Азиатские фильмы
Viktor1952



Показать сообщения:    

Текущее время: 23-Май 14:12

Часовой пояс: UTC + 6


Вы не можете начинать темы
Вы не можете отвечать на сообщения
Вы не можете редактировать свои сообщения
Вы не можете удалять свои сообщения
Вы не можете голосовать в опросах
Вы не можете прикреплять файлы к сообщениям
Вы не можете скачивать файлы

!ВНИМАНИЕ!
Сайт не предоставляет электронные версии произведений, а занимается лишь коллекционированием и каталогизацией ссылок, присылаемых и публикуемых на форуме нашими читателями. Если вы являетесь правообладателем какого-либо представленного материала и не желаете, чтобы ссылка на него находилась в нашем каталоге, свяжитесь с нами, и мы незамедлительно удалим ее. Файлы для обмена на трекере предоставлены пользователями сайта, и администрация не несет ответственности за их содержание. Просьба не заливать файлы, защищенные авторскими правами, а также файлы нелегального содержания!