***Уважаемые пользователи и гости !!! Сайт переехал на новый домен Torrents-club.info. Просьба изменить ваши закладки! ***
 
[ Сегодня идет свободное скачивание без начисления Download ]


Статистика раздачи
Нет
 
   
 
 
 
Только не они «Героем может стать каждый»- Информация
Производство: Россия | Art Pictures Studio, BB Production & Promotion
Жанр: Комедия
Режиссер: Александр Бойков
Актеры: Дарья Храмцова, Полина Максимова, Юлия Хлынина, Данил Стеклов, Денис Бузин, Сергей Дубров, Сергей Якимович, Владимир Стеклов, Александр Семчев, Сергей Белоголовцев
Описание:
Когда мир в опасности, обычно на помощь приходят супергерои. Все знают, что они храбрее, умнее и сильнее нас. Но что, если вселенная решит развлечься, и миссия по спасению человечества ляжет на слабенькие плечи двадцатилетних тусовщиков и пофигистов?
Математик, Мажор, Рокер, Стерва, Псих, Блондинка и Неудачница просыпаются после бурной вечеринки с интригующим названием «Конец света» и обнаруживают опустевший полуразрушенный город. На них открыта охота, а на горизонте маячит уже самый настоящий апокалипсис. И остановить его мог бы кто угодно… но только не они!


Возраст: 16+ (зрителям, достигшим 16 лет)
Дата мировой премьеры: 26 октября 2018
Дата российской премьеры: 25 октября 2018, «Централ Партнершип»
Продолжительность: 01:36:43
Перевод: Не требуется, Русский (iTunes)
Файл
Качество видео: WEB-DL Сэмпл
Видео: AVC/H.264, 1920x804 (2.40:1), ~4502 kbps, 24.00 fps
Аудио: AC3, 6 ch, 48.0 kHz, 384 kbps cbr
Субтитры: Отсутствуют

Mediainfo:

General
Unique ID : 242408358676689206315273452597229247647 (0xB65E26D4242DD19BB2E87B00C68DDC9F)
Complete name : C:\Только_не_они_2018_WEB-DL_1080p.mkv
Format : Matroska
Format version : Version 2
File size : 3.30 GiB
Duration : 1 h 36 min
Overall bit rate : 4 888 kb/s
Encoded date : UTC 2018-11-21 19:15:30
Writing application : mkvmerge v8.3.0 ('Over the Horizon') 64bit
Writing library : libebml v1.3.1 + libmatroska v1.4.2
Video
ID : 1
Format : AVC
Format/Info : Advanced Video Codec
Format profile : High@L4
Format settings : CABAC / 5 Ref Frames
Format settings, CABAC : Yes
Format settings, ReFrames : 5 frames
Codec ID : V_MPEG4/ISO/AVC
Duration : 1 h 36 min
Bit rate : 4 502 kb/s
Width : 1 920 pixels
Height : 804 pixels
Display aspect ratio : 2.40:1
Frame rate mode : Constant
Frame rate : 24.000 FPS
Color space : YUV
Chroma subsampling : 4:2:0
Bit depth : 8 bits
Scan type : Progressive
Bits/(Pixel*Frame) : 0.122
Stream size : 3.04 GiB (92%)
Language : English
Default : Yes
Forced : No
Color range : Limited
Color primaries : BT.709
Transfer characteristics : BT.709
Matrix coefficients : BT.709
Audio
ID : 2
Format : AC-3
Format/Info : Audio Coding 3
Commercial name : Dolby Digital
Codec ID : A_AC3
Duration : 1 h 36 min
Bit rate mode : Constant
Bit rate : 384 kb/s
Channel(s) : 6 channels
Channel layout : L R C LFE Ls Rs
Sampling rate : 48.0 kHz
Frame rate : 31.250 FPS (1536 SPF)
Bit depth : 16 bits
Compression mode : Lossy
Stream size : 266 MiB (8%)
Language : Russian
Service kind : Complete Main
Default : Yes
Forced : No
Menu
00:00:00.000 : en:Глава 1
00:05:28.875 : en:Глава 2
00:12:05.458 : en:Глава 3
00:21:30.374 : en:Глава 4
00:28:14.040 : en:Глава 5
00:34:50.748 : en:Глава 6
00:42:39.581 : en:Глава 7
00:51:44.456 : en:Глава 8
00:59:41.372 : en:Глава 9
01:04:39.955 : en:Глава 10
01:11:29.205 : en:Глава 11
01:19:54.871 : en:Глава 12
01:27:28.079 : en:Глава 13

Скриншоты

Скриншоты:

[Цитировать]

Топик был перенесен из форума Новинки кинопроката 2018 (HD Video) в форум Российское / казахстанское кино
Viktor1952



Показать сообщения:    

Текущее время: 04-Дек 14:09

Часовой пояс: UTC + 6


Вы не можете начинать темы
Вы не можете отвечать на сообщения
Вы не можете редактировать свои сообщения
Вы не можете удалять свои сообщения
Вы не можете голосовать в опросах
Вы не можете прикреплять файлы к сообщениям
Вы не можете скачивать файлы

!ВНИМАНИЕ!
Сайт не предоставляет электронные версии произведений, а занимается лишь коллекционированием и каталогизацией ссылок, присылаемых и публикуемых на форуме нашими читателями. Если вы являетесь правообладателем какого-либо представленного материала и не желаете, чтобы ссылка на него находилась в нашем каталоге, свяжитесь с нами, и мы незамедлительно удалим ее. Файлы для обмена на трекере предоставлены пользователями сайта, и администрация не несет ответственности за их содержание. Просьба не заливать файлы, защищенные авторскими правами, а также файлы нелегального содержания!