***Уважаемые пользователи и гости !!! Сайт переехал на новый домен Torrents-club.info. Просьба изменить ваши закладки! ***
 
[ Сегодня идет свободное скачивание без начисления Download ]


Статистика раздачи
Нет
 
   
 
 
 
Кто ты? [01-16 из 16] (2018) WEBRip Информация о фильме
Оригинальное название: Кто ты?
Год выхода: 2018
Жанр: Детектив
Режиссер: Анатолий Матешко
В ролях: Екатерина Кузнецова (II), Антон Батырев, Ярослав Гуревич, Мирослав Павличенко, Игорь Пазыч, Анастасия Походенко-Матешко, Олег Примогенов, Ренат Сеттаров, Владимир Абазопуло (младший), Елена Хохлаткина, Константин Октябрьский
О фильме:
История о психотерапевте Инге Штефан, перешедшей в криминальный профайлинг после странной гибели нескольких ее пациентов, а ранее – исчезновения жениха. Параллельно со своим расследованием Инга работает с убойным отделом Главка полиции. В ходе развития сюжета героиня узнает, что за ней много лет следит маньяк, виновный не только в смертях ее пациентов и жениха...
Страна: Россия, Украина
Студия: Кинокомпания "Упс"
Продолжительность: 16 х 00:48:00
Перевод: Не требуется
Файл
Кодек: XviD
Качество: WEBRip
Видео: XviD, ~ 1683 Кбит/с, 720x400
Звук: AC3, 2 ch, 192 Кбит/с

Скриншоты


MediaInfo:

Общее
Полное имя : D:\моё видио\Кто ты.(2018).WEBRip.by.Nicodem.Files-x\01.Кто ты.(2018).WEBRip.by.Nicodem.Files-x.avi
Формат : AVI
Формат/Информация : Audio Video Interleave
Размер файла : 602 Мбайт
Продолжительность : 44 м.
Общий поток : 1885 Кбит/сек
Программа кодирования : VirtualDubMod 1.5.10.3 | www.virtualdub-fr.org || (build 2550/release)
Библиотека кодирования : VirtualDubMod build 2550/release
Видео
Идентификатор : 0
Формат : MPEG-4 Visual
Профиль формата : Advanced Simple@L5
Параметр BVOP формата : 1
Параметр QPel формата : Нет
Параметр GMC формата : Без точки перехода
Параметр матрицы формата : Выборочная
Идентификатор кодека : XVID
Идентификатор кодека/Подсказка : XviD
Продолжительность : 44 м.
Битрейт : 1683 Кбит/сек
Ширина : 720 пикселей
Высота : 400 пикселей
Соотношение сторон : 16:9
Частота кадров : 25,000 кадров/сек
Цветовое пространство : YUV
Субдискретизация насыщенности : 4:2:0
Битовая глубина : 8 бит
Тип развёртки : Прогрессивная
Метод сжатия : С потерями
Бит/(Пиксели*Кадры) : 0.234
Размер потока : 537 Мбайт (89%)
Библиотека кодирования : XviD 73
Аудио
Идентификатор : 1
Формат : AC-3
Формат/Информация : Audio Coding 3
Расширение режима : CM (complete main)
Параметр Endianness формата : Big
Идентификатор кодека : 2000
Продолжительность : 44 м.
Вид битрейта : Постоянный
Битрейт : 192 Кбит/сек
Каналы : 2 канала
Расположение каналов : Front: L R
Частота : 48,0 КГц
Битовая глубина : 16 бит
Метод сжатия : С потерями
Размер потока : 61,3 Мбайт (10%)
Выравнивание : Разделение по промежуткам
Продолжительность промежутка : 40 мс. (1,00 видеокадр)
Время предзагрузки промежутка : 500 мс.
Добавлены 1-16 серии.
Сериал залит полностью.


Последний раз редактировалось: papa1951deda (2018-11-30 18:41), всего редактировалось 2 раз(а)

[Цитировать]

Добавлены 9-16 серии.

[Цитировать]



Показать сообщения:    

Текущее время: 07-Дек 05:44

Часовой пояс: UTC + 6


Вы не можете начинать темы
Вы не можете отвечать на сообщения
Вы не можете редактировать свои сообщения
Вы не можете удалять свои сообщения
Вы не можете голосовать в опросах
Вы не можете прикреплять файлы к сообщениям
Вы не можете скачивать файлы

!ВНИМАНИЕ!
Сайт не предоставляет электронные версии произведений, а занимается лишь коллекционированием и каталогизацией ссылок, присылаемых и публикуемых на форуме нашими читателями. Если вы являетесь правообладателем какого-либо представленного материала и не желаете, чтобы ссылка на него находилась в нашем каталоге, свяжитесь с нами, и мы незамедлительно удалим ее. Файлы для обмена на трекере предоставлены пользователями сайта, и администрация не несет ответственности за их содержание. Просьба не заливать файлы, защищенные авторскими правами, а также файлы нелегального содержания!