***Уважаемые пользователи и гости !!! Сайт переехал на новый домен Torrents-club.info. Просьба изменить ваши закладки! ***
 
[ Сегодня идет свободное скачивание без начисления Download ]


Статистика раздачи
Нет
 
   
 
 
 
Медное солнце (Юбилейный встречный) (Фильмы 1-2 из 2) WEB-DLRip Оригинальное название: Медное солнце (Юбилейный встречный)
Год выпуска: 2018
Жанр: Драма, военный
Выпущено: Россия, МАРС Медиа, КАРГО по заказу телеканала НТВ
Режиссер: Карен Оганесян
В ролях: Владимир Машков, Микаэл Джанибекян, Ольга Медынич, Алексей Шевченков, Максим Емельянов, Сабина Ахмедова, Зарина Мухитдинова, Олег Галахов, Владимир Нисков
О фильме: 1991-й год. Некогда единый и могучий Советский Союз раскалывается изнутри. Жители удалённого кишлака в Средней Азии с тревогой узнают новости о волнениях, прокатывающихся по стране. Но ведь здесь местные давно живут бок о бок с русскими. Герои нашей истории — музыканты полкового оркестра, отработавшие на свадьбе в дальнем ауле и вернувшиеся в часть к пустым баракам. Полк получил срочный приказ о передислокации и ушёл. В это время в горах появился отряд боевиков, перешедших границу для того, чтобы начать в стране гражданскую войну. И вместо того, чтобы догонять полк, музыканты, половина из которых ещё совсем мальчишки, остаются для защиты мира в посёлке. Это история про проверку на человечность, силу духа, умение устоять против волны ненависти и гнева, про любовь и, конечно, про музыку, которая побеждает там, где автоматы и танки бессильны.
Файл:
Качество: WEB-DLRip
Видео: XviD, ~ 1600 Кбит/с, 720x400
Аудио: AC3, 2 ch, 192 Кбит/с
Продолжительность: 2 x ~ 02:17:00
Язык: Русский
Доп. ин.-ция

Внимание! Раздача ведётся путём добавления новых серий

Раздача ведётся путём добавления новых серий, при каждом добавлении создаётся новый торрент. Чтобы начать докачку новой серии, пользователям необходимо сделать следующее:
- Остановить скачивание.
- Удалить старый торрент у себя из клиента (старые серии удалять не надо).
- Скачать новый торрент и запустить его у себя в клиенте вместо старого, при этом указать клиенту путь в старую папку куда и должно происходить скачивание новых серий.
Ваш клиент при этом должен произвести хеширование (проверку) старой папки (если не производит сам - помогите ему сделать это), и будет докачивать только те серии которых у вас ещё нет. Старые серии при этом не удаляются, а продолжают раздаваться!

MediaInfo:

General
Complete name : D:\моё видио\Медное солнце.2018.WEB-DLRip.Files-x\01.Медное солнце.2018.WEB-DLRip.Files-x.avi
Format : AVI
Format/Info : Audio Video Interleave
File size : 1.63 GiB
Duration : 2h 17mn
Overall bit rate : 1 702 Kbps
Writing application : VirtualDubMod 1.5.10.3 | www.virtualdub-fr.org || (build 2550/release)
Writing library : VirtualDubMod build 2550/release
Video
ID : 0
Format : MPEG-4 Visual
Format profile : Advanced Simple@L5
Format settings, BVOP : 1
Format settings, QPel : No
Format settings, GMC : No warppoints
Format settings, Matrix : Custom
Codec ID : XVID
Codec ID/Hint : XviD
Duration : 2h 17mn
Bit rate : 1 500 Kbps
Width : 720 pixels
Height : 304 pixels
Display aspect ratio : 2.35:1
Frame rate : 25.000 fps
Color space : YUV
Chroma subsampling : 4:2:0
Bit depth : 8 bits
Scan type : Progressive
Compression mode : Lossy
Bits/(Pixel*Frame) : 0.274
Stream size : 1.44 GiB (88%)
Writing library : XviD 73
Audio
ID : 1
Format : AC-3
Format/Info : Audio Coding 3
Mode extension : CM (complete main)
Format settings, Endianness : Big
Codec ID : 2000
Duration : 2h 17mn
Bit rate mode : Constant
Bit rate : 192 Kbps
Channel(s) : 2 channels
Channel positions : Front: L R
Sampling rate : 48.0 KHz
Bit depth : 16 bits
Compression mode : Lossy
Stream size : 188 MiB (11%)
Alignment : Split accross interleaves
Interleave, duration : 40 ms (1.00 video frame)
Interleave, preload duration : 500 ms

Скриншоты

Добавлены 1-2 фильмы.


Последний раз редактировалось: papa1951deda (2018-11-28 09:28), всего редактировалось 1 раз

[Цитировать]

Добавлен 2 фильм

[Цитировать]



Показать сообщения:    

Текущее время: 04-Дек 14:56

Часовой пояс: UTC + 6


Вы не можете начинать темы
Вы не можете отвечать на сообщения
Вы не можете редактировать свои сообщения
Вы не можете удалять свои сообщения
Вы не можете голосовать в опросах
Вы не можете прикреплять файлы к сообщениям
Вы не можете скачивать файлы

!ВНИМАНИЕ!
Сайт не предоставляет электронные версии произведений, а занимается лишь коллекционированием и каталогизацией ссылок, присылаемых и публикуемых на форуме нашими читателями. Если вы являетесь правообладателем какого-либо представленного материала и не желаете, чтобы ссылка на него находилась в нашем каталоге, свяжитесь с нами, и мы незамедлительно удалим ее. Файлы для обмена на трекере предоставлены пользователями сайта, и администрация не несет ответственности за их содержание. Просьба не заливать файлы, защищенные авторскими правами, а также файлы нелегального содержания!