***Уважаемые пользователи и гости !!! Сайт переехал на новый домен Torrents-club.info. Просьба изменить ваши закладки! ***
 
[ Сегодня идет свободное скачивание без начисления Download ]


Статистика раздачи
Нет
 
   
 
 
 
Медное солнце (сезон 1, серии 1-3 из 6) (2018) WEB-DL 1080p - Производство: Россия | Карго Фильм, Марс Медиа Энтертейнмент
Жанр: военный, драма
Режиссер: Карен Оганесян
Актеры: Владимир Машков, Ольга Медынич, Алексей Шевченков, Сабина Ахмедова, Евгений Чубарь, Глеб Бочков, Олег Галахов, Сергей Дьяков, Сергей Двойников, Зарина Мухитдинова и др.
Описание:
Сюжет истории разворачивается в 1991 году в удалённом кишлаке Среднеазиатской республики. Полковой оркестр возвращается после несостоявшегося музыкального конкурса и обнаруживают, что бараки пусты. Их полк получил известие о волнениях, прокатывающихся по Советскому Союзу со срочным приказом о передислокации и ушёл. Для раскачки ситуации в регионе неподалеку от кишлака поселился отряд боевиков. Теперь перед музыкантами, половина из которых ещё совсем мальчишки, встает нелёгкий выбор: догнать своих или остаться для защиты мира в посёлке.

Возраст: 16+ (зрителям, достигшим 16 лет)
Дата российской премьеры: 26 ноября 2018
Продолжительность: ~00:45:00 серия
Качество видео: WEB-DL
Видео: AVC/H.264, 1920x1080 (16:9), ~6000 kbps
Аудио: AC3, 2 ch, 192 kbps

Mediainfo:

General
Unique ID : 244576379740599464741746181226712506181 (0xB7FFB28515E6F91DA127A02569B79F45)
Complete name : В:\Медное_солнце_2018_WEB-DL_1080p\Медное_солнце_2018_WEB-DL_1080p_Фильм_Первый.mkv
Format : Matroska
Format version : Version 4
File size : 5.91 GiB
Duration : 2 h 17 min
Overall bit rate mode : Constant
Overall bit rate : 6 177 kb/s
Encoded date : UTC 2018-11-26 21:03:42
Writing application : mkvmerge v7.8.0 ('River Man') 32bit built on Mar 27 2015 16:18:02
Writing library : libebml v1.3.1 + libmatroska v1.4.2
Video
ID : 1
Format : AVC
Format/Info : Advanced Video Codec
Format profile : High@L4.1
Format settings : 2 Ref Frames
Format settings, CABAC : No
Format settings, ReFrames : 2 frames
Codec ID : V_MPEG4/ISO/AVC
Duration : 2 h 17 min
Bit rate mode : Constant
Bit rate : 6 000 kb/s
Width : 1 920 pixels
Height : 1 080 pixels
Display aspect ratio : 16:9
Frame rate mode : Constant
Frame rate : 25.000 FPS
Standard : PAL
Color space : YUV
Chroma subsampling : 4:2:0
Bit depth : 8 bits
Scan type : Progressive
Bits/(Pixel*Frame) : 0.116
Stream size : 5.73 GiB (97%)
Default : Yes
Forced : No
Color range : Limited
Color primaries : BT.709
Transfer characteristics : BT.709
Matrix coefficients : BT.709
Audio
ID : 2
Format : AC-3
Format/Info : Audio Coding 3
Commercial name : Dolby Digital
Codec ID : A_AC3
Duration : 2 h 17 min
Bit rate mode : Constant
Bit rate : 192 kb/s
Channel(s) : 2 channels
Channel layout : L R
Sampling rate : 48.0 kHz
Frame rate : 31.250 FPS (1536 SPF)
Bit depth : 16 bits
Compression mode : Lossy
Stream size : 188 MiB (3%)
Language : Russian
Service kind : Complete Main
Default : Yes
Forced : No

Дополнительная информация

Серии 1-3 объеденены в 1 файл. НТВ не стал делить на серии, а объединил 3 эпизода в один фильм, На КП указано в эпизодах (сериях), поэтому в раздаче указано как "сезон,.. серии.."
Подготовка к съемкам исторического проекта началась заранее. За три месяца до начала работы Владимир Машков и двенадцать молодых актеров по четыре часа в день учились играть, дирижировать и маршировать в оркестре Минобороны России. Только после этого они смогли отправиться в двухмесячную экспедицию в Узбекистан.
Владимир Машков: «Дорогие и близкие моему сердцу режиссер и два продюсера пригласили меня в проект. Я говорю о Тимуре Вайнштейне, Рубене Дишдишяне и Карене Оганесяне. Я знаю их давно, и практически вся моя жизнь и изменения в ней проходили под их взором. Для меня это большое счастье, и вообще это большая редкость, когда ты находишь своих людей — такого режиссера, понимающего тебя и предлагающего много нового и интересного. Одному быть очень скучно для актера, он может заблудиться. Обязательно должен быть точный взгляд со стороны, который предложит то, о чем ты не успел подумать».
Для съемок сериала был выбран древний город, находящийся под защитой ЮНЕСКО, — Хива. В нем нет ТВ-антенн, тарелок, пластиковых окон, которые мешают в кадре. Зато в Хиве есть постройки, характерные для Средней Азии, ведь эта история не привязана к месту, она о человечности, силе духа и умении устоять против волны ненависти и гнева. Проект «Медное солнце» — про любовь и музыку, которые побеждают там, где автоматы и танки бессильны.

Внимание! Раздача ведётся путём добавления новых серий

Внимание! Раздача ведётся путём добавления новых серий; при каждом добавлении создаётся новый торрент.
Чтобы начать докачку новой серии, пользователям необходимо сделать следующее:
1. Остановить скачивание;
2. Удалить старый торрент у себя из клиента (старые серии удалять не надо);
3. Скачать новый торрент и запустить его у себя в клиенте вместо старого, при этом указать клиенту путь в старую папку куда и должно происходить скачивание новых серий. Ваш клиент при этом должен произвести хеширование (проверку) старой папки и будет докачивать только те серии, которых у вас ещё нет. Старые серии при этом не удаляются, а продолжают раздаваться! Eсли вы уже удалили старые серии, то предотвратить повторную закачку старых серий можно, отжав галочку в соответствующих местах при запуске нового торрента.
Скриншоты:

[Цитировать]



Показать сообщения:    

Текущее время: 24-Май 03:41

Часовой пояс: UTC + 6


Вы не можете начинать темы
Вы не можете отвечать на сообщения
Вы не можете редактировать свои сообщения
Вы не можете удалять свои сообщения
Вы не можете голосовать в опросах
Вы не можете прикреплять файлы к сообщениям
Вы не можете скачивать файлы

!ВНИМАНИЕ!
Сайт не предоставляет электронные версии произведений, а занимается лишь коллекционированием и каталогизацией ссылок, присылаемых и публикуемых на форуме нашими читателями. Если вы являетесь правообладателем какого-либо представленного материала и не желаете, чтобы ссылка на него находилась в нашем каталоге, свяжитесь с нами, и мы незамедлительно удалим ее. Файлы для обмена на трекере предоставлены пользователями сайта, и администрация не несет ответственности за их содержание. Просьба не заливать файлы, защищенные авторскими правами, а также файлы нелегального содержания!